MNV 7000 Kilometer Heimweh - Ein Jahr in China E03 Liebe in China dtv h264 mp4 [mnvv2 info]

Size 340.479 MB   3 seeders     Added 2011-10-10 02:57:53

Stream torrent
Starting‥ You need BitLord! Get it from BitLord.com
To download or stream you need BitLord. Visit them at BitLord.com
Sie sind 7000 Kilometer von der Heimat entfernt. In einem Land, in dem völlig andere kulturellen Regeln als zu Hause gelten. Sie können sich weder über die Sprache noch über die Schrift mit den Menschen verständigen. Die Städte sind gigantisch und chaotisch, die Natur ist zugleich märchenhaft schön und gefährlich. Die Ernährung stellt einen täglich vor neue Herausforderungen. Das Land heißt China. Und die Reise dauert ein Jahr...\r\n\r\nEin Jahr in China. Erst seit kurzer Zeit hat sich das Reich der Mitte für deutsche Austauschschüler geöffnet. Begleitet wurden vier 16jährige, die ein ganzes Jahr in chinesischen Gastfamilien lebten und chinesische Schulen besuchten.\r\n\r\nFranziska Aurnhammer aus Hof, Henning Weineck aus Wesel, Avid Avini aus München und Christian Peckart aus Remagen haben sich auf dieses Abenteuer eingelassen, wurden dabei vierteljährlich besucht und haben ihre Erlebnisse auch in selbst gedrehten Videos festgehalten. Franziska und Henning verbrachten das Jahr in der Metropole Shanghai, Christian verschlug es in die für ihre exotische Küche berüchtigte kantonesische Provinzhauptstadt Guangzhou und Avid lebte bei einer Bahnarbeiter-Familie in der aufstrebenden Provinzstadt Wuhu.\r\n\r\nWir erleben das unbekannte Familienleben in der chinesischen Mittelschicht mit Riesenfeuerwerk zum Frühlingsfest, Ferien in malerischer Umgebung und natürlich den Teenageralltag zwischen langem Schultag und Heimweh. Ein kurzweiliger und intimer Blick von vier abenteuerlustigen deutschen Jugendlichen auf den Alltag im fernöstlichen Wirtschaftswunderland.\r\n\r\n\r\nFOLGE 3/4: LIEBE IN CHINADVD plus READER\r\nChina ist ein Land, das zwischen Jahrtausende alter Tradition, Kommunismus und Kapitalismus hin- und hergerissen ist. Vor allem Avid und Franziska nehmen diese Kontraste wahr.\r\n\r\nEndlich – es ist soweit: Franziska darf ihren sehnsüchtig erwarteten Freund in die Arme schließen. Beim Wiedersehen fließen die Freudentränen. Mit dem Transrapid geht’s vom Flughafen in ein Hotel, denn übernachten darf er natürlich nicht bei ihr. So tolerant ist ihre chinesische Gastfamilie eben doch nicht. Als er wieder abgereist ist, fällt sie in ein kleines seelisches Loch. Henning spendet ihr Trost. Auch wenn es ihm gar nicht gut geht. Sein Gastvater hat seit Wochen nicht mehr mit ihm geredet. Er ist ratlos.\r\n\r\nAvid leidet immer mehr unter dem Verhaltenskodex an seiner Schule. Er bezweifelt, ob die chinesischen Schüler überhaupt lernen, eigenständig zu denken. Ein längerer Ausflug mit seinem Vertrauenslehrer zum pittoresken Erhai-See in der Provinz Yunnnan versöhnt ihn etwas mit der chinesischen Kultur. Was ihn aber am meisten begeistert, sind die chinesischen Mädchen. Gemeinsam mit seinem dänischen Freund Philipp steigt er ihnen auf der Fußgängerzone hinterher.\r\n\r\nChristian macht mit seiner Gastfamilie einen Trip in die chinesische Provinz. Im „goldenen Bambusdorf“ nimmt er zur Erheiterung der chinesischen Touristen an einem traditionellen Hochzeitsritual teil. Obwohl sein Gastvater und er ein Herz und eine Seele sind, enttarnt er dessen größtes Geheimnis: Die Gasteltern haben nicht nur getrennte Wohnungen, sondern auch neue Lebenspartner, das dürfen in China noch nicht mal die eigenen Kinder wissen...\r\n\r\n\r\nGeneral\r\nComplete name                    : 7000.Kilometer.Heimweh.-.Ein.Jahr.in.China.E03.Liebe.in.China.dtv.h264.mp4\r\nFormat                           : MPEG-4\r\nFormat profile                   : Base Media / Version 2\r\nCodec ID                         : mp42\r\nFile size                        : 325 MiB\r\nDuration                         : 28mn 33s\r\nOverall bit rate                 : 1 589 Kbps\r\nEncoded date                     : UTC 2011-09-25 15:26:47\r\nTagged date                      : UTC 2011-09-25 15:27:35\r\n\r\nVideo\r\nID                               : 1\r\nFormat                           : AVC\r\nFormat/Info                      : Advanced Video Codec\r\nFormat profile                   : Baseline@L3.0\r\nFormat settings, CABAC           : No\r\nFormat settings, ReFrames        : 2 frames\r\nCodec ID                         : avc1\r\nCodec ID/Info                    : Advanced Video Coding\r\nDuration                         : 28mn 33s\r\nBit rate mode                    : Variable\r\nBit rate                         : 1 394 Kbps\r\nWidth                            : 720 pixels\r\nHeight                           : 400 pixels\r\nDisplay aspect ratio             : 16:9\r\nFrame rate mode                  : Constant\r\nFrame rate                       : 25.000 fps\r\nColor space                      : YUV\r\nChroma subsampling               : 4:2:0\r\nBit depth                        : 8 bits\r\nScan type                        : Progressive\r\nBits/(Pixel*Frame)               : 0.194\r\nStream size                      : 285 MiB (88%)\r\nTitle                            : Apple Video Mediensteuerung\r\nEncoded date                     : UTC 2011-09-25 15:26:46\r\nTagged date                      : UTC 2011-09-25 15:27:35\r\nColor primaries                  : BT.601-6 525, BT.1358 525, BT.1700 NTSC, SMPTE 170M\r\nTransfer characteristics         : BT.709-5, BT.1361\r\nMatrix coefficients              : BT.601-6 525, BT.1358 525, BT.1700 NTSC, SMPTE 170M\r\n\r\nAudio\r\nID                               : 2\r\nFormat                           : AAC\r\nFormat/Info                      : Advanced Audio Codec\r\nFormat profile                   : LC\r\nCodec ID                         : 40\r\nDuration                         : 28mn 32s\r\nBit rate mode                    : Constant\r\nBit rate                         : 192 Kbps\r\nChannel(s)                       : 2 channels\r\nChannel positions                : Front: L R\r\nSampling rate                    : 48.0 KHz\r\nCompression mode                 : Lossy\r\nStream size                      : 39.2 MiB (12%)\r\nTitle                            : Apple Ton Mediensteuerung\r\nLanguage                         : German\r\nEncoded date                     : UTC 2011-09-25 15:26:46\r\nTagged date                      : UTC 2011-09-25 15:27:35
7000.Kilometer.Heimweh.-.Ein.Jahr.in.China.E03.Liebe.in.China.dtv.h264.mp4 340.479 MB
Gathering some info...

Register and log in Isohunt and see no captcha anymore!

4000 symbols left
Hash 86174E3A4019A15A4B02B10CC4E38284AD59DA69

Related torrents for "MNV 7000 Kilometer Heimweh - Ein Jahr in China E03 Liebe in China dtv h264 mp4 [mnvv2 info]"

Torrent search:

h264