imdb
rating

6.8
Abschied

Abschied (1930)

Full description
quality   h264

MNV 7000 Kilometer Heimweh - Ein Jahr in China E04 Abschied von der neuen Heimat dtv h264 mp4 [mnvv2 info]

Size 320.791 MB   0 seeders     Added 2011-10-10 02:57:57

Stream torrent
Starting‥ You need BitLord! Get it from BitLord.com
To download or stream you need BitLord. Visit them at BitLord.com
Sie sind 7000 Kilometer von der Heimat entfernt. In einem Land, in dem völlig andere kulturellen Regeln als zu Hause gelten. Sie können sich weder über die Sprache noch über die Schrift mit den Menschen verständigen. Die Städte sind gigantisch und chaotisch, die Natur ist zugleich märchenhaft schön und gefährlich. Die Ernährung stellt einen täglich vor neue Herausforderungen. Das Land heißt China. Und die Reise dauert ein Jahr...\r\n\r\nEin Jahr in China. Erst seit kurzer Zeit hat sich das Reich der Mitte für deutsche Austauschschüler geöffnet. Begleitet wurden vier 16jährige, die ein ganzes Jahr in chinesischen Gastfamilien lebten und chinesische Schulen besuchten.\r\n\r\nFranziska Aurnhammer aus Hof, Henning Weineck aus Wesel, Avid Avini aus München und Christian Peckart aus Remagen haben sich auf dieses Abenteuer eingelassen, wurden dabei vierteljährlich besucht und haben ihre Erlebnisse auch in selbst gedrehten Videos festgehalten. Franziska und Henning verbrachten das Jahr in der Metropole Shanghai, Christian verschlug es in die für ihre exotische Küche berüchtigte kantonesische Provinzhauptstadt Guangzhou und Avid lebte bei einer Bahnarbeiter-Familie in der aufstrebenden Provinzstadt Wuhu.\r\n\r\nWir erleben das unbekannte Familienleben in der chinesischen Mittelschicht mit Riesenfeuerwerk zum Frühlingsfest, Ferien in malerischer Umgebung und natürlich den Teenageralltag zwischen langem Schultag und Heimweh. Ein kurzweiliger und intimer Blick von vier abenteuerlustigen deutschen Jugendlichen auf den Alltag im fernöstlichen Wirtschaftswunderland.\r\n\r\n\r\nFOLGE 4/4: ABSCHIED VON DER NEUEN HEIMATDVD plus READER\r\nEin Jahr in der Ferne vergeht schnell, wenn man tagtäglich mit neuen Eindrücken konfrontiert wird. Am Ende warten die vier deutschen Gastschüler mit einigen Überraschungen auf bevor es einen tränenreichen Abschied gibt.\r\n\r\nAusgerechnet Avid, der immer behauptet, dass er seine Gefühle unter Kontrolle hat, hat sich verliebt – in eine Chinesin. Wie im siebten Himmel spaziert er mit ihr durch den Stadtpark von Wuhu und mietet eine der schwimmenden Liebesinseln. Mit ihr plant er sogar eine gemeinsame Zukunft. Das Klima in seiner Gastfamilie ist dagegen unerträglich für ihn geworden. Um so überraschter ist er über die Verabschiedungen am Ende seiner Zeit in China...\r\n\r\nIm Gegensatz dazu hat sich Hennings Beziehung zu seinem Gastvater wieder verbessert. Auch wenn Henning die Wandlungen der chinesische Seele immer noch nicht ganz versteht: er ist glücklich. Am schwersten fällt ihm der Abschied von seinen neuen Freunden im Tischtennisclub. Henning hat hier für immer ein Stück zweite Heimat gefunden.\r\n\r\nChristian ist unterdessen für seinen Gastvater wie ein zweiter Sohn geworden. Der anfangs noch so unbeholfen und schüchtern wirkende Teenager hat sich gewandelt. Er hat durch das Jahr in China einen gewaltigen Sprung gemacht.\r\n\r\nFranziska ist wenige Tage vor der Rückreise nach Deutschland schwer beschäftigt. Zu ihrer Gastfamilie hat sich ein enges Verhältnis entwickelt. Am Ende fließen dicke Tränen. Dabei ist das Zeigen von Gefühlen vor allem für chinesische Männer tabu.\r\n\r\nDie vier Teenager ziehen ein Fazit. Sie alle haben sich auf ihre Weise verändert. Doch würden sie auch in China leben wollen?\r\n\r\n\r\nGeneral\r\nComplete name                    : 7000.Kilometer.Heimweh.-.Ein.Jahr.in.China.E04.Abschied.von.der.neuen.Heimat.dtv.h264.mp4\r\nFormat                           : MPEG-4\r\nFormat profile                   : Base Media / Version 2\r\nCodec ID                         : mp42\r\nFile size                        : 306 MiB\r\nDuration                         : 28mn 27s\r\nOverall bit rate                 : 1 503 Kbps\r\nEncoded date                     : UTC 2011-09-25 16:00:13\r\nTagged date                      : UTC 2011-09-25 16:00:30\r\n\r\nVideo\r\nID                               : 1\r\nFormat                           : AVC\r\nFormat/Info                      : Advanced Video Codec\r\nFormat profile                   : Baseline@L3.0\r\nFormat settings, CABAC           : No\r\nFormat settings, ReFrames        : 2 frames\r\nCodec ID                         : avc1\r\nCodec ID/Info                    : Advanced Video Coding\r\nDuration                         : 28mn 27s\r\nBit rate mode                    : Variable\r\nBit rate                         : 1 308 Kbps\r\nWidth                            : 720 pixels\r\nHeight                           : 400 pixels\r\nDisplay aspect ratio             : 16:9\r\nFrame rate mode                  : Constant\r\nFrame rate                       : 25.000 fps\r\nColor space                      : YUV\r\nChroma subsampling               : 4:2:0\r\nBit depth                        : 8 bits\r\nScan type                        : Progressive\r\nBits/(Pixel*Frame)               : 0.182\r\nStream size                      : 266 MiB (87%)\r\nTitle                            : Apple Video Mediensteuerung\r\nEncoded date                     : UTC 2011-09-25 16:00:11\r\nTagged date                      : UTC 2011-09-25 16:00:30\r\nColor primaries                  : BT.601-6 525, BT.1358 525, BT.1700 NTSC, SMPTE 170M\r\nTransfer characteristics         : BT.709-5, BT.1361\r\nMatrix coefficients              : BT.601-6 525, BT.1358 525, BT.1700 NTSC, SMPTE 170M\r\n\r\nAudio\r\nID                               : 2\r\nFormat                           : AAC\r\nFormat/Info                      : Advanced Audio Codec\r\nFormat profile                   : LC\r\nCodec ID                         : 40\r\nDuration                         : 28mn 26s\r\nBit rate mode                    : Constant\r\nBit rate                         : 192 Kbps\r\nChannel(s)                       : 2 channels\r\nChannel positions                : Front: L R\r\nSampling rate                    : 48.0 KHz\r\nCompression mode                 : Lossy\r\nStream size                      : 39.1 MiB (13%)\r\nTitle                            : Apple Ton Mediensteuerung\r\nLanguage                         : German\r\nEncoded date                     : UTC 2011-09-25 16:00:11\r\nTagged date                      : UTC 2011-09-25 16:00:30
7000.Kilometer.Heimweh.-.Ein.Jahr.in.China.E04.Abschied.von.der.neuen.Heimat.dtv.h264.mp4 320.791 MB
Gathering some info...

Register and log in Isohunt and see no captcha anymore!

4000 symbols left
Hash E887601B06484EC667D0C27FF7C801ECB09F2FDA

Related torrents for "MNV 7000 Kilometer Heimweh - Ein Jahr in China E04 Abschied von der neuen Heimat dtv h264 mp4 [mnvv2 info]"

Torrent search:

h264