Trujillo Distance (ft. Mr casanova) By ColdReader

Size 32.488 MB   0 seeders     Added 2011-10-15 02:46:07

Stream torrent
Starting‥ You need BitLord! Get it from 1BitLord.com
To download or stream you need BitLord. Visit them at BitLord.com
Trujillo Distance (ft. Mr casanova) By ColdReader
Format : MPEG-4
Format profile : QuickTime
Codec ID : qt 
File size : 31.0 MiB
Duration : 4mn 5s
Overall bit rate : 1 060 Kbps
Encoded date : UTC 2011-09-23 04:29:53
Tagged date : UTC 2011-09-23 04:33:59
Writing library : Apple QuickTime
Video
ID : 2
Format : MPEG-4 Visual
Format profile : Advanced Simple@L3
Format settings, BVOP : Yes
Format settings, QPel : No
Format settings, GMC : No warppoints
Format settings, Matrix : Default (H.263)
Codec ID : 20
Duration : 4mn 5s
Bit rate : 925 Kbps
Width : 640 pixels
Height : 480 pixels
Display aspect ratio : 4:3
Frame rate mode : Constant
Frame rate : 25.000 fps
Color space : YUV
Bit depth : 8 bits
Scan type : Progressive
Compression mode : Lossy
Bits/(Pixel*Frame) : 0.120
Stream size : 27.0 MiB (87%)
Language : English
Encoded date : UTC 2011-09-23 04:29:54
Tagged date : UTC 2011-09-23 04:33:59
Audio
ID : 1
Format : AAC
Format/Info : Advanced Audio Codec
Format profile : LC
Codec ID : 40
Duration : 4mn 4s
Bit rate mode : Constant
Bit rate : 128 Kbps
Channel(s) : 2 channels
Channel positions : Front: L R
Sampling rate : 44.1 KHz
Compression mode : Lossy
Stream size : 3.68 MiB (12%)
Language : English
Encoded date : UTC 2011-09-23 04:29:54
Tagged date : UTC 2011-09-23 04:33:59
Material_Duration : 244947
Material_StreamSize : 3853521
Listo para Iphone, Samsung Galaxy (serie)
 
trujillo distance featt. mister casanova.mov 32.488 MB
Gathering some info...

Register and log in Isohunt and see no captcha anymore!

4000 symbols left
Hash 91C13A9B63438EE156A39B10229AC81053FF502C