imdb
rating

6.8
The Grey

The Grey (2011)

Action, Drama, Thriller

Full description

The Grey 2011.LIMITED.BRRIP.XVID.AbSurdiTy

Size 630.882 MB   0 seeders     Added 2011-10-18 14:34:24

Stream torrent
Starting‥ You need BitLord! Get it from BitLord.com
To download or stream you need BitLord. Visit them at BitLord.com
Encoded By .......:UnKnOwN
Runtime ..........:1:42
Language .........:English
File Size ........:941mb
Release Date ......... 2011
File Type ......... Single AVI
PS3 Compatible ....... Who cares



Video
ID : 0
Format : MPEG-4 Visual
Format profile : Advanced Simple@L5
Format settings, BVOP : Yes
Format settings, QPel : No
Format settings, GMC : No warppoints
Format settings, Matrix : Custom
Codec ID : XVID
Codec ID/Hint : XviD

Bit rate : 1 197 Kbps
Width : 680pixels
Height : 272 pixels
Display aspect ratio : 2.500
Frame rate : 25.000 fps
Color space : YUV
Chroma subsampling : 4:2:0
Bit depth : 8 bits
Scan type : Progressive
Bits/(Pixel*Frame) : 0.234
Stream size : 892 MiB (86%)
Writing library : XviD 1.2.1 (UTC 2008-12-04)


Audio
ID : 1
Format : MPEG Audio
Format/Info : Version 1
Mode extension : Layer 3
Codec ID : Joint stereo

Bit rate mode : Constant
Bit rate : 128 Kbps
Channel(s) : 2 channels
Channel positions : 2 channels
Sampling rate : 44.1 KHz
Bit depth : 16 bits
Stream size : 302 MiB
Alignment : Aligned on interleaves
Interleave, duration : 42 ms (1.00 video frame)
Interleave, preload duration : 512 ms
The Grey 2011.LIMITED.BRRIP.XVID.AbSurdiTy/The Grey 2011.LIMITED.BRRIP.XVID.AbSurdiTy.avi 630.882 MB
Gathering some info...

Register and log in Isohunt and see no captcha anymore!

4000 symbols left
Hash a07ec79ab1d9fc8d98f1db39c4a63a3fd5e9e40c

Related torrents for "The Grey 2011.LIMITED.BRRIP.XVID.AbSurdiTy"

Torrent search:

bd 2011