imdb
rating

6.2
The Thing

The Thing (2011)

Horror, Mystery, Science Fiction, Thriller

Full description
quality   dvdrip cam bd telesync

The Thing 2011.LIMITED.BRRIP.XVID.AbSurdiTy

Size 632.922 MB   0 seeders     Added 2011-10-18 15:26:30

Stream torrent
Starting‥ You need BitLord! Get it from 1BitLord.com
To download or stream you need BitLord. Visit them at BitLord.com
Encoded By .......:UnKnOwN
Runtime ..........:1:42
Language .........:English
File Size ........:941mb
Release Date ......... 2011
File Type ......... Single AVI
PS3 Compatible ....... Who cares



Video
ID : 0
Format : MPEG-4 Visual
Format profile : Advanced Simple@L5
Format settings, BVOP : Yes
Format settings, QPel : No
Format settings, GMC : No warppoints
Format settings, Matrix : Custom
Codec ID : XVID
Codec ID/Hint : XviD

Bit rate : 1 197 Kbps
Width : 680pixels
Height : 272 pixels
Display aspect ratio : 2.500
Frame rate : 25.000 fps
Color space : YUV
Chroma subsampling : 4:2:0
Bit depth : 8 bits
Scan type : Progressive
Bits/(Pixel*Frame) : 0.234
Stream size : 892 MiB (86%)
Writing library : XviD 1.2.1 (UTC 2008-12-04)


Audio
ID : 1
Format : MPEG Audio
Format/Info : Version 1
Mode extension : Layer 3
Codec ID : Joint stereo

Bit rate mode : Constant
Bit rate : 128 Kbps
Channel(s) : 2 channels
Channel positions : 2 channels
Sampling rate : 44.1 KHz
Bit depth : 16 bits
Stream size : 302 MiB
Alignment : Aligned on interleaves
Interleave, duration : 42 ms (1.00 video frame)
Interleave, preload duration : 512 ms
The Thing 2011.LIMITED.BRRIP.XVID.AbSurdiTy/The Thing 2011.LIMITED.BRRIP.XVID.AbSurdiTy.avi 632.922 MB
Gathering some info...

Register and log in Isohunt and see no captcha anymore!

4000 symbols left
Hash 1a25e6b3bd2561e40a897ba6dbcaad390f7c9dc6

Related torrents for "The Thing 2011.LIMITED.BRRIP.XVID.AbSurdiTy"

Torrent search:

bd 2011