imdb
rating

7.1
The Colour of Magic

The Colour of Magic (2008)

Comedy, Fantasy

Full description
quality   x264 hd dvdrip hdtv bd fullhd

MNV The Color Of Magic 2008 German DL AC3 DVDRip x264 [mnvv2 info]

Size 1.58 GB   0 seeders     Added 2011-10-19 02:56:50

Stream torrent
Starting‥ You need BitLord! Get it from 1BitLord.com
To download or stream you need BitLord. Visit them at BitLord.com
Nach den Scheibenwelt-Romanen Die Farben\r\nder Magie und Das Licht der Phantasie\r\nvon Terry Pratchett.\r\n\r\nAuftakt von Terry Pratchetts legendaerem\r\nScheibenwelt-Zyklus:\r\nGetragen auf dem Ruecken von vier Elefanten,\r\ndie wiederum auf dem Panzer einer\r\nStern-Schildkroete stehen, reist die\r\nScheibenwelt durch das Multiversum ...\r\nDer erfolglose Magier Rincewind\r\n(Sir David Jason) wird unfreiwillig zum\r\nReisefuehrer des ersten Scheibenwelt-Touristen\r\nZweiblum (Sean Astin) und seiner intelligenten\r\nHolztruhe. Gemeinsam erleben sie einen\r\nabenteuerlichen Trip an den Rand der\r\nScheibenwelt, kaempfen gegen Zauberer,\r\nentkommen Druiden und reiten auf Drachen.\r\nAber kann Rincewind auch Trymon (Tim Curry),\r\nseinen groessten Feind besiegen und die\r\nScheibenwelt vor der Zerstoerung retten?\r\n\r\nGeneral\r\nFormat  :Matroska\r\nFile size  :1.45 GiB\r\nDuration  :3h 9mn\r\nOverall bit rate  :1096 Kbps\r\nCover  :Yes\r\n\r\nVideo\r\nID  :1Format  :AVC\r\nFormat/Info  :Advanced Video Codec\r\nFormat profile  :High@L2.1\r\nBit rate  :626 Kbps\r\nWidth  :576 pixels\r\nHeight  :320 pixels\r\nDisplay aspect ratio  :16:9\r\nFrame rate  :25.000 fps\r\nBits/(Pixel*Frame)  :0.136\r\nStream size  :851 MiB (57)\r\nWriting library  :x264 core 115 r1995 c1e60b9\r\n\r\nAudio #1\r\nID  :2Format  :AC-3\r\nBit rate mode  :Constant\r\nBit rate  :224 Kbps\r\nChannel(s)  :6channels\r\nChannel positions  :Front: LCR, Side: LR, LFE\r\nStream size  :304 MiB (20)\r\nLanguage  :German\r\n\r\nAudio #2\r\nID  :3Format  :AC-3\r\nBit rate mode  :Constant\r\nBit rate  :224 Kbps\r\nChannel(s)  :6channels\r\nChannel positions  :Front: LCR, Side: LR, LFE\r\nStream size  :304 MiB (20)\r\nLanguage  :English\r\n\r\nText\r\nID  :4Format  :VobSub\r\nLanguage  :German\r\n\r\nChapters\r\nPart 1\r\n00:00:00.000  :de:1 Rincewind\r\n00:11:06.680  :de:2 Der Tourist\r\n00:26:59.960  :de:3 Feuer\r\n00:39:53.520  :de:4 Abgaengiger Zauberspruch\r\n00:50:23.920  :de:5 Das magische Schwert\r\n00:59:52.160  :de:6 Kampf auf Leben und Tod\r\n01:10:48.480  :de:7 Am Rande der Welt\r\n01:22:52.480  :de:8 Helden\r\nPart 2\r\n01:38:12.156  :de:1 Die Prophezeiung\r\n01:49:36.716  :de:2 Der 8. Zauberspruch\r\n02:03:15.556  :de:3 Auf der Schwelle des Todes\r\n02:13:23.476  :de:4 Cohen der Barbar\r\n02:20:57.476  :de:5 Im Trollsteingebirge\r\n02:33:52.076  :de:6 Ankh-Morpork\r\n02:45:08.836  :de:7 Neue Welten\r\n02:58:56.596  :de:8 Abschied
info.txt 3.498 KB
Sample.mkv 18.28 MB
The.Color Of Magic.1.mkv 1.561 GB
Gathering some info...

Register and log in Isohunt and see no captcha anymore!

4000 symbols left
Hash D133B71DC01C085A55966F4C6099E926667FF66F

Related torrents for "MNV The Color Of Magic 2008 German DL AC3 DVDRip x264 [mnvv2 info]"

Torrent search:

dvdrip german x264 2008