Attila - Payback Music Video [2011] FLV -BSAA.flv

Size 15.074 MB   4 seeders     Added 2011-10-20 02:46:18

Stream torrent
Starting‥ You need BitLord! Get it from BitLord.com
To download or stream you need BitLord. Visit them at BitLord.com
Official new music video from Attila. Seed and Enjoy!!
Video
Format : AVC
Format/Info : Advanced Video Codec
Format profile : Main@L3.2
Format settings, CABAC : No
Format settings, ReFrames : 2 frames
Codec ID : 7
Duration : 3mn 31s
Bit rate : 500 Kbps
Width : 512 pixels
Height : 176 pixels
Display aspect ratio : 2.909
Frame rate mode : Constant
Frame rate : 30.000 fps
Color space : YUV
Chroma subsampling : 4:2:0
Bit depth : 8 bits
Scan type : Progressive
Bits/(Pixel*Frame) : 0.185
Stream size : 12.6 MiB (88%)
Writing library : x264 core 112
Audio
Format : AAC
Format/Info : Advanced Audio Codec
Format profile : LC
Codec ID : 10
Duration : 3mn 31s
Bit rate : 64.0 Kbps
Channel(s) : 2 channels
Channel positions : Front: L R
Sampling rate : 32.0 KHz
Compression mode : Lossy
Stream size : 1.62 MiB (11%)
 
Attila - Payback Music Video [2011] FLV -BSAA.flv 15.074 MB
Gathering some info...

Register and log in Isohunt and see no captcha anymore!

4000 symbols left
Hash 832BB0D55A70130575BF749D03CEF1A56F035270