La Storia siamo noi - L'Italia di Alfredino [tvrip xvid mp3 ITA][Nautilus-BT]

Size 565.098 MB   0 seeders     Added 2011-10-21 01:22:30

Stream torrent
Starting‥ You need BitLord! Get it from BitLord.com
To download or stream you need BitLord. Visit them at BitLord.com
Le televisioni trasmettono le immagini del paese di Vermicino, nei pressi di Roma dove  un bambino di 6 anni, Alfredo Rampi è caduto in un pozzo artesiano. La vicenda si trasforma immediatamente,  per la prima volta in Italia, in un fenomeno mediatico in cui milioni di persone seguono in diretta tv la vicenda, trasmessa a reti unificate. la diretta piu lunga della storia, da venerdi 12 giugno a sabato 13 giugno. La polizia accorre sul luogo in serata, chiamata dai genitori e localizza il bambino. Poco dopo mezzanotte arrivano i Vigili del Fuoco. Il pozzo è largo 30 cm, profondo 80 metri. Si pensa che Alfredino si sia bloccato a 36 metri: scivolerà invece fino a 
60. La vicenda di Vermicino ebbe una notevole risonanza mediatica.

General
Complete name                    : C:\Users\crashburn\Downloads\La Storia siamo noi - L'Italia di 

Alfredino\LSSN - La Tragedia Di Alfredino.mpg
Format                           : MPEG-PS
File size                        : 539 MiB
Duration                         : 54mn 6s
Overall bit rate                 : 1 393 Kbps

Video
ID                               : 224 (0xE0)
Format                           : MPEG Video
Format version                   : Version 1
Format settings, BVOP            : Yes
Format settings, Matrix          : Default
Duration                         : 54mn 6s
Bit rate mode                    : Constant
Bit rate                         : 1 113 Kbps
Nominal bit rate                 : 1 130 Kbps
Width                            : 352 pixels
Height                           : 288 pixels
Display aspect ratio             : 4:3
Frame rate                       : 25.000 fps
Resolution                       : 8 bits
Scan type                        : Progressive
Bits/(Pixel*Frame)               : 0.439
Stream size                      : 431 MiB (80%)

Audio
ID                               : 192 (0xC0)
Format                           : MPEG Audio
Format version                   : Version 1
Format profile                   : Layer 2
Duration                         : 54mn 6s
Bit rate mode                    : Constant
Bit rate                         : 224 Kbps
Channel(s)                       : 2 channels
Sampling rate                    : 44.1 KHz
Video delay                      : 88ms
Stream size                      : 86.7 MiB (16%)
La Storia siamo noi - L'Italia di Alfredino/LSSN - La Tragedia Di Alfredino.mpg 565.098 MB
Gathering some info...

Register and log in Isohunt and see no captcha anymore!

4000 symbols left
Hash 4678c22354d62e00878aacf4aabf7f7b2546281c