imdb
rating

6.9
Anonymous

Anonymous (2011)

Drama, History, Mystery, Thriller

Full description
quality   telesync dvd x264 dvdrip bd cam

Anonymous.2011.TS.x264.Feel-Free

Size 1.515 GB   0 seeders     Added 2011-10-23 14:26:37

Stream torrent
Starting‥ You need BitLord! Get it from BitLord.com
To download or stream you need BitLord. Visit them at BitLord.com
[img]image[/img]

Genre:Drama
Language:English
http://www.imdb.com/title/tt1521197/
Source:Russian TS/Reborn/Illuminati/Suckit Thanks!

Format : MPEG-4
Format profile : Base Media
Codec ID : isom
File size : 1.41 GiB
Overall bit rate : 1 741 Kbps

Video
ID : 1
Format : AVC
Format/Info : Advanced Video Codec
Format profile : High@L4.1
Format settings, CABAC : Yes
Format settings, ReFrames : 3 frames
Format settings, GOP : M=3, N=15
Codec ID : avc1
Codec ID/Info : Advanced Video Coding
Bit rate mode : Variable
Bit rate : 1 500 Kbps
Maximum bit rate : 9 217 Kbps
Width : 720 pixels
Height : 304 pixels
Display aspect ratio : 2.35:1
Frame rate mode : Constant
Frame rate : 25.000 fps
Color space : YUV
Chroma subsampling : 4:2:0
Bit depth : 8 bits
Scan type : Progressive
Bits/(Pixel*Frame) : 0.274
Stream size : 1.23 GiB (87%)
Writing library : x264

Audio
ID : 2
Format : AAC
Format/Info : Advanced Audio Codec
Format version : Version 4
Format profile : LC
Format settings, SBR : No
Codec ID : 40
Bit rate mode : Variable
Bit rate : 224 Kbps
Maximum bit rate : 283 Kbps
Channel(s) : 2 channels
Channel positions : Front: L R
Sampling rate : 48.0 KHz
Stream size : 186 MiB (13%)


Plot:
A political thriller advancing the theory that it was in fact Edward De Vere, Earl of Oxford who penned Shakespeare's plays; set against the backdrop of the succession of Queen Elizabeth I, and the Essex Rebellion against her. 

TRAILER:
[embed=youtube]http://www.youtube.com/watch?v=3PUMP4YBCEM[/embed]



Greets:

INK,CRYS,IMAGINE,LKRG,FXG,3Li,FLAWL3SS,TA,iLLUSiON,ViSiON,DTRG SAFCuk009,LU,TheFalcon007,MYSTiC,PrisM,Noir,WBZ,LAP,Rx,Kingdom,SAFCuk009+Fabreezy,HDLiTE,TWiZTED,ETRG.ELEKTRI4KA,MAGNAT,CM8
And to all the other p2p grps past and present
Anonymous.2011.TS.x264.Feel-Free/Anonymous.2011.TS.x264.Feel-Free.mp4 1.515 GB
Anonymous.2011.TS.x264.Feel-Free/Feel-Free.nfo 1.788 KB
Anonymous.2011.TS.x264.Feel-Free/poster.jpg 170.903 KB
Gathering some info...

Register and log in Isohunt and see no captcha anymore!

4000 symbols left
Hash 4b492d7d4277da33687b0de21ffe55fb9634c384

Related torrents for "Anonymous.2011.TS.x264.Feel-Free"

Torrent search:

telesync x264 2011