Light Fantastic

Light Fantastic (2004)

Discovery/Science

Full description

BBC Light Fantastic

Size 1.096 GB   2 seeders     Added 2011-10-24 02:46:23

Stream torrent
Starting‥ You need BitLord! Get it from BitLord.com
To download or stream you need BitLord. Visit them at BitLord.com
Petroc Trelawny introduces a concert of the very best in light music to celebrate the 60th anniversary of the Festival of Britain. John Wilson, the modern champion of light music, conducts the BBC Symphony Orchestra in a concert from London's South Bank, including works by Eric Coates, Edward German and Robert Farnon.
Format : MPEG-4
Format profile : Base Media
Codec ID : isom
File size : 1.02 GiB
Duration : 1h 37mn
Overall bit rate : 1 503 Kbps
Writing application : Lavf53.13.0
Video
ID : 1
Format : AVC
Format/Info : Advanced Video Codec
Format profile : Main@L3.0
Format settings, CABAC : Yes
Format settings, ReFrames : 4 frames
Codec ID : avc1
Codec ID/Info : Advanced Video Coding
Duration : 1h 37mn
Bit rate mode : Constant
Bit rate : 1 404 Kbps
Width : 832 pixels
Height : 468 pixels
Display aspect ratio : 16:9
Frame rate mode : Constant
Frame rate : 25.000 fps
Standard : PAL
Color space : YUV
Chroma subsampling : 4:2:0
Bit depth : 8 bits
Scan type : Progressive
Bits/(Pixel*Frame) : 0.144
Stream size : 976 MiB (93%)
Audio
ID : 2
Format : AAC
Format/Info : Advanced Audio Codec
Format profile : HE-AAC / LC
Codec ID : 40
Duration : 1h 37mn
Bit rate mode : Constant
Bit rate : 96.0 Kbps
Channel(s) : 2 channels
Channel positions : Front: L R
Sampling rate : 48.0 KHz / 24.0 KHz
Compression mode : Lossy
Stream size : 65.9 MiB (6%) 
Light Fantastic.mp4 1.096 GB
Light Fantastic.txt 2.651 KB
Torrent downloaded from Demonoid.me.txt 46 B
Gathering some info...

Register and log in Isohunt and see no captcha anymore!

4000 symbols left
Hash B556568AFA3821072F33C2584258D55478DFB8AF

Related torrents for "BBC Light Fantastic"