Carlos

Carlos (2010)

Crime, Drama, History, Thriller

Full description

MNV Carlos der Killer E01 HDTV-720p x264 mp4 [mnvv2 info]

Size 811.131 MB   0 seeders     Added 2011-10-26 03:11:41

Stream torrent
Starting‥ You need BitLord! Get it from BitLord.com
To download or stream you need BitLord. Visit them at BitLord.com
CARLOS DER KILLER (1)\r\n\r\nSein Name ist Ilich Ramírez Sánchez, doch weltweit bekannt wurde er in den 1970er Jahren als Terrorist Carlos. Seinen Aufstieg und Fall zeichnet der preisgekrönte Film „Carlos“ bei ARTE nach. Das ARTE Magazin sprach mit Stefan Aust über Carlos und den Wandel des Terrorismus.\r\n\r\nMit 16 war er Leiter in einer kommunistischen Jugendorganisation, mit Mitte 20 schloss er sich der palästinensischen Befreiungsfront PFLP an. 1975 wurde Carlos zum meistgesuchten Mann der Welt – mit dem Anschlag auf das OPEC-Hauptquartier in Wien, der Geiselnahme der Ölminister, dessen Kommando er leitete. Wer den Anschlag in Auftrag gab, konnte nie bewiesen werden. Carlos hatte auch Kontakt zur Baader-Meinhof-Gruppe und zum Ministerium für Staatssicherheit der damaligen DDR. Das ARTE Magazin sprach mit Stefan Aust über den Mann, der sich als Star des internationalen Terrorismus inszenierte und dessen Verstrickungen und Motive bis heute im Dunkeln bleiben.\r\n\r\nGeneral\r\nComplete name                    : Carlos.der.Killer.E01.HDTV-720p.x264.mp4\r\nFormat                           : MPEG-4\r\nFormat profile                   : Base Media / Version 2\r\nCodec ID                         : mp42\r\nFile size                        : 774 MiB\r\nDuration                         : 1h 39mn\r\nOverall bit rate                 : 1 089 Kbps\r\nEncoded date                     : UTC 2011-10-22 00:25:57\r\nTagged date                      : UTC 2011-10-22 04:05:38\r\nWriting application              : HandBrake 0.9.5 2011010300\r\n\r\nVideo\r\nID                               : 1\r\nFormat                           : AVC\r\nFormat/Info                      : Advanced Video Codec\r\nFormat profile                   : High@L3.2\r\nFormat settings, CABAC           : Yes\r\nFormat settings, ReFrames        : 4 frames\r\nCodec ID                         : avc1\r\nCodec ID/Info                    : Advanced Video Coding\r\nDuration                         : 1h 39mn\r\nBit rate mode                    : Variable\r\nBit rate                         : 885 Kbps\r\nWidth                            : 1 280 pixels\r\nHeight                           : 544 pixels\r\nDisplay aspect ratio             : 2.35:1\r\nFrame rate mode                  : Variable\r\nFrame rate                       : 50.000 fps\r\nMinimum frame rate               : 3.333 fps\r\nMaximum frame rate               : 50.028 fps\r\nColor space                      : YUV\r\nChroma subsampling               : 4:2:0\r\nBit depth                        : 8 bits\r\nScan type                        : Progressive\r\nBits/(Pixel*Frame)               : 0.025\r\nStream size                      : 628 MiB (81%)\r\nWriting library                  : x264 core 112\r\nEncoding settings                : cabac=1 / ref=3 / deblock=1:0:0 / analyse=0x3:0x113 / me=hex / subme=7 / psy=1 / psy_rd=1.00:0.00 / mixed_ref=1 / me_range=16 / chroma_me=1 / trellis=1 / 8x8dct=1 / cqm=0 / deadzone=21,11 / fast_pskip=1 / chroma_qp_offset=-2 / threads=6 / sliced_threads=0 / nr=0 / decimate=1 / interlaced=0 / constrained_intra=0 / bframes=3 / b_pyramid=2 / b_adapt=2 / b_bias=0 / direct=1 / weightb=1 / open_gop=0 / weightp=2 / keyint=500 / keyint_min=50 / scenecut=40 / intra_refresh=0 / rc_lookahead=50 / rc=crf / mbtree=1 / crf=27.0 / qcomp=0.60 / qpmin=3 / qpmax=51 / qpstep=4 / ip_ratio=1.40 / aq=1:1.00\r\nEncoded date                     : UTC 2011-10-22 00:25:58\r\nTagged date                      : UTC 2011-10-22 04:05:38\r\nColor primaries                  : BT.709-5, BT.1361, IEC 61966-2-4, SMPTE RP177\r\nTransfer characteristics         : BT.709-5, BT.1361\r\nMatrix coefficients              : BT.709-5, BT.1361, IEC 61966-2-4 709, SMPTE RP177\r\n\r\nAudio\r\nID                               : 2\r\nFormat                           : AAC\r\nFormat/Info                      : Advanced Audio Codec\r\nFormat profile                   : LC\r\nCodec ID                         : 40\r\nDuration                         : 1h 39mn\r\nBit rate mode                    : Variable\r\nBit rate                         : 197 Kbps\r\nMaximum bit rate                 : 307 Kbps\r\nChannel(s)                       : 2 channels\r\nChannel positions                : Front: L R\r\nSampling rate                    : 48.0 KHz\r\nCompression mode                 : Lossy\r\nStream size                      : 140 MiB (18%)\r\nLanguage                         : German\r\nEncoded date                     : UTC 2011-10-22 00:25:58\r\nTagged date                      : UTC 2011-10-22 04:05:37
Carlos.der.Killer.E01.HDTV-720p.x264.mp4 811.131 MB
Gathering some info...

Register and log in Isohunt and see no captcha anymore!

4000 symbols left
Hash AA08F71E6BCEF281E1C0BC42C01DF833E15251C4

Related torrents for "MNV Carlos der Killer E01 HDTV-720p x264 mp4 [mnvv2 info]"

Torrent search:

x264 hdtv hd