[FLAC] J. S. Bach - 6 Partitas by András Schiff (BWV 825-830) - Musica Classica

Size 487.484 MB   0 seeders     Added 2011-10-27 01:19:38

Stream torrent
Starting‥ You need BitLord! Get it from 1BitLord.com
To download or stream you need BitLord. Visit them at BitLord.com
[URL=http://forum.tntvillage.scambioetico.org/tntforum/index.php?showtopic=218610][IMG]image[/IMG][/URL]

[b][SIZE=12][color=blue]J. S. Bach - 6 Partitas (Andras Schiff)[/SIZE][/b][/color]
[color=red] by MonoS94[/color]

[b][color=orange][::Cover::][/color][/b]
[IMG]image[/IMG]

[b][color=orange][::Dati Album::][/color][/b]
[b]Anno: 1993 [/b]
[b]Genere: Musica classica[/b]

[b][color=orange][::Tracklist::][/color][/b][LIST]
[*]1.  	Partita for Keyboard no 1 in B flat major, BWV 825 by Johann Sebastian Bach
Performer:  András Schiff (Piano)
Period: Baroque 
Written: 1726-1731; Leipzig, Germany 

		
[*]2.  	Partita for Keyboard no 2 in C minor, BWV 826 by Johann Sebastian Bach
Performer:  András Schiff (Piano)
Period: Baroque 
Written: 1726-1731; Germany 

		
[*]3.  	Partita for Keyboard no 3 in A minor, BWV 827 by Johann Sebastian Bach
Performer:  András Schiff (Piano)
Period: Baroque 
Written: 1726-1731; Leipzig, Germany 

		
[*]4.  	Partita for Keyboard no 4 in D major, BWV 828 by Johann Sebastian Bach
Performer:  András Schiff (Piano)
Period: Baroque 
Written: 1726-1731; Germany 

		
[*]5.  	Partita for Keyboard no 5 in G major, BWV 829 by Johann Sebastian Bach
Performer:  András Schiff (Piano)
Period: Baroque 
Written: 1726-1731; Leipzig, Germany 

		
[*]6.  	Partita for Keyboard no 6 in E minor, BWV 830 by Johann Sebastian Bach
Performer:  András Schiff (Piano)
Period: Baroque 
Written: 1726-1731; Leipzig, Germany
[/LIST][b][color=orange][::Biografia::][/color][/b]
Johann Sebastian Bach, pronunciato in tedesco [ˈjoːhan zeˈbasti̯an ˈbax] (Eisenach, 31 marzo 1685 secondo il calendario gregoriano, 21 marzo 1685 secondo quello giuliano – Lipsia, 28 luglio 1750), è stato un compositore, organista, clavicembalista e maestro di coro tedesco del periodo barocco, di fede luterana, universalmente considerato uno dei più grandi geni nella storia della musica.  Le sue opere sono notevoli per profondità intellettuale, padronanza dei mezzi tecnici ed espressivi e bellezza artistica.  Bach operò una sintesi mirabile fra lo stile tedesco (di cui erano stati esponenti, fra gli altri, Pachelbel e Buxtehude) e le opere dei compositori italiani (particolarmente Vivaldi), dei quali trascrisse numerosi brani, assimilandone soprattutto lo stile concertante. La sua opera costituì la summa e lo sviluppo delle svariate tendenze compositive della sua epoca. Il grado di complessità strutturale, la difficoltà tecnica e l'esclusione del genere melodrammatico, tuttavia, resero la sua opera appannaggio solo dei musicisti più dotati e all'epoca ne limitarono la diffusione fra il grande pubblico, in paragone alla popolarità raggiunta da altri musicisti contemporanei come Telemann o Händel.  Nel 1829 l'esecuzione della Passione secondo Matteo, diretta a Berlino da Felix Mendelssohn, riportò alla conoscenza degli appassionati la qualità elevatissima dell'opera compositiva di Bach, che è da allora considerata il compendio della musica contrappuntistica del periodo barocco.  A lui è dedicato l'asteroide 1814 Bach.

Fonte: [URL=http://it.wikipedia.org/wiki/Bach]Wikipedia[/URL]

[b][color=orange][::Recensione::][/color][/b]
A very special disc.

This disc is something very special indeed. Twenty-five years after recording the Partitas in the studio for Decca, Schiff returns to them in a live recording from the wonderfully intimate acoustic of the Neumarkt Reitstadel. The performances radiate such warmth, spontaneity and joy as to reinforce one’s beliefs in Schiff, Bach and the power of music as a whole.

One of the things that makes this recording unique is Schiff’s reordering of the works. He points out in the CD booklet that Bach would never have dreamt of hearing all of the Partitas performed in order on one evening, so there is no reason to be historically uncomfortable with this. He orders them according to descending keys: G - a - B flat - c - D - e. “Each major key is followed by a minor key, and the partita with the greatest musical substance forms the final capstone.” It’s very effective and, if anything, makes for a more satisfying musical experience than simply listening to them in order, starting with the cheerful fifth partita, working through to the craggy grandeur of the sixth which finally slips from E minor into G major.

Schiff clearly thrives on the excitement of the live event: there is a sense of the unrepeatable about this disc, as if you are eavesdropping on a private recital that can only happen once. This stamps these works with a sense of love and sheer affection that really make them come alive. Schiff’s technique is as assured as ever: every note of this music has been in his blood for decades and he brings acres of experience to bear on each bar. The unaffected simplicity of the opening Praeludium of the B flat is like a sorbet after the heavier textures of the A minor gigue. The filigree lightness of the Allemande that follows feels like it is like floating in midair. To so successfully go on to play the gorgeously expansive Sarabande is a tribute to Schiff’s great artistry. The c minor partita has solemnity coupled with remarkable delicacy, while the D major combines grandeur and subtlety with remarkable artistry. The final partita has a remarkable sense of scale to it, the final gigue sounding massive, almost titanic until that final E major chord which comes with an undeniable sense of journey’s end.

As a recital or as a sheer display of great music making this is hard to beat. It is a testament to the great relationship that ECM - who recently won a Gramophone Award for label of the year - have with their artists that this record was made at all, never mind the sense of warmth and affection that permeates every note. The sound is close and warm without ever being clinical and it all provides a tremendously satisfying experience. I repeat: a very special disc.

-- Simon Thompson, MusicWeb International 

[b][color=orange][::Dati tecnici::][/color][/b]
Fonte Flac + Cue riconvertita in file Flac separati
Flac 1.2.1 - Encoding con profilo V8

[b]CD 1[/b]
[CODE]
Exact Audio Copy V0.99 prebeta 5 from 4. May 2009

EAC extraction logfile from 21. November 2010, 0:15

Johann Sebastian Bach / 6 Partitas (CD1)

Used drive  : Optiarc DVD RW AD-7203A   Adapter: 4  ID: 1

Read mode               : Secure
Utilize accurate stream : Yes
Defeat audio cache      : Yes
Make use of C2 pointers : No

Read offset correction                      : 48
Overread into Lead-In and Lead-Out          : No
Fill up missing offset samples with silence : Yes
Delete leading and trailing silent blocks   : No
Null samples used in CRC calculations       : Yes
Used interface                              : Native Win32 interface for Win NT & 2000

Used output format              : User Defined Encoder
Selected bitrate                : 128 kBit/s
Quality                         : High
Add ID3 tag                     : No
Command line compressor         : C:\Program Files\FLAC\flac.exe
Additional command line options : -5 -V %s


TOC of the extracted CD

     Track |   Start  |  Length  | Start sector | End sector 
    ---------------------------------------------------------
        1  |  0:00.33 |  2:04.05 |        33    |     9337   
        2  |  2:04.38 |  2:55.72 |      9338    |    22534   
        3  |  5:00.35 |  2:53.00 |     22535    |    35509   
        4  |  7:53.35 |  4:34.53 |     35510    |    56112   
        5  | 12:28.13 |  1:20.07 |     56113    |    62119   
        6  | 13:48.20 |  1:25.23 |     62120    |    68517   
        7  | 15:13.43 |  2:18.12 |     68518    |    78879   
        8  | 17:31.55 |  4:39.33 |     78880    |    99837   
        9  | 22:11.13 |  4:21.17 |     99838    |   119429   
       10  | 26:32.30 |  2:08.15 |    119430    |   129044   
       11  | 28:40.45 |  2:59.53 |    129045    |   142522   
       12  | 31:40.23 |  1:41.37 |    142523    |   150134   
       13  | 33:21.60 |  3:26.73 |    150135    |   165657   
       14  | 36:48.58 |  7:37.02 |    165658    |   199934   
       15  | 44:25.60 |  3:46.15 |    199935    |   216899   
       16  | 48:12.00 |  6:27.70 |    216900    |   245994   
       17  | 54:39.70 |  6:09.60 |    245995    |   273729   
       18  | 60:49.55 |  2:13.33 |    273730    |   283737   
       19  | 63:03.13 |  5:59.35 |    283738    |   310697   


Range status and errors

Selected range

     Filename D:\EAC\Johann Sebastian Bach - 6 Partitas (CD1).wav

     Peak level 95.2 %
     Range quality 100.0 %
     Test CRC 8B28FC4E
     Copy CRC 8B28FC4E
     Copy OK

No errors occurred

 
AccurateRip summary
 
Track  1  accurately ripped (confidence 8)  [DD215171]
Track  2  accurately ripped (confidence 8)  [FF2AAC78]
Track  3  accurately ripped (confidence 8)  [7181F631]
Track  4  accurately ripped (confidence 8)  [CCB0D784]
Track  5  accurately ripped (confidence 8)  [14C470AE]
Track  6  accurately ripped (confidence 8)  [828B232F]
Track  7  accurately ripped (confidence 8)  [7C2AD10A]
Track  8  accurately ripped (confidence 8)  [0603FCF0]
Track  9  accurately ripped (confidence 8)  [5DC033AC]
Track 10  accurately ripped (confidence 8)  [EC7DBF78]
Track 11  accurately ripped (confidence 8)  [0B9D0E95]
Track 12  accurately ripped (confidence 8)  [3CCE82B7]
Track 13  accurately ripped (confidence 8)  [E56209D7]
Track 14  accurately ripped (confidence 8)  [55705A11]
Track 15  accurately ripped (confidence 8)  [D9347AB1]
Track 16  accurately ripped (confidence 8)  [A60E1B2B]
Track 17  accurately ripped (confidence 8)  [63F295F8]
Track 18  accurately ripped (confidence 8)  [7B746E52]
Track 19  accurately ripped (confidence 8)  [C1921EC3]
 
All tracks accurately ripped

End of status report
[/CODE]

[b]CD 2[/b]
[CODE]
Log translation at http://eachelper.uphero.com/
Exact Audio Copy V0.99 prebeta 5 from 4. May 2009

EAC extraction logfile from 21. November 2010, 13:52

Johann Sebastian Bach / 6 Partitas (CD2)

Used drive  : Optiarc DVD RW AD-7203A   Adapter: 4  ID: 1

Read mode               : Secure
Utilize accurate stream : Yes
Defeat audio cache      : Yes
Make use of C2 pointers : No

Read offset correction                      : 48
Overread into Lead-In and Lead-Out          : No
Fill up missing offset samples with silence : Yes
Delete leading and trailing silent blocks   : No
Null samples used in CRC calculations       : Yes
Used interface                              : Native Win32 interface for Win NT & 2000

Used output format              : User Defined Encoder
Selected bitrate                : 128 kBit/s
Quality                         : High
Add ID3 tag                     : No
Command line compressor         : C:\Program Files\FLAC\flac.exe
Additional command line options : -5 -V %s


TOC of the extracted CD

     Track |   Start  |  Length  | Start sector | End sector 
    ---------------------------------------------------------
        1  |  0:00.33 |  1:52.42 |        33    |     8474   
        2  |  1:53.00 |  2:56.10 |      8475    |    21684   
        3  |  4:49.10 |  2:47.38 |     21685    |    34247   
        4  |  7:36.48 |  5:26.50 |     34248    |    58747   
        5  | 13:03.23 |  1:02.02 |     58748    |    63399   
        6  | 14:05.25 |  3:05.00 |     63400    |    77274   
        7  | 17:10.25 |  6:04.30 |     77275    |   104604   
        8  | 23:14.55 |  8:03.18 |    104605    |   140847   
        9  | 31:17.73 |  3:25.20 |    140848    |   156242   
       10  | 34:43.18 |  2:17.27 |    156243    |   166544   
       11  | 37:00.45 |  5:49.28 |    166545    |   192747   
       12  | 42:49.73 |  1:34.57 |    192748    |   199854   
       13  | 44:24.55 |  3:45.65 |    199855    |   216794   
       14  | 48:10.45 |  2:09.30 |    216795    |   226499   
       15  | 50:20.00 |  4:07.10 |    226500    |   245034   
       16  | 54:27.10 |  1:31.25 |    245035    |   251884   
       17  | 55:58.35 |  4:03.70 |    251885    |   270179   
       18  | 60:02.30 |  2:35.25 |    270180    |   281829   
       19  | 62:37.55 |  1:42.30 |    281830    |   289509   
       20  | 64:20.10 |  3:56.05 |    289510    |   307214   


Range status and errors

Selected range

     Filename D:\EAC\Johann Sebastian Bach - 6 Partitas (CD2).wav

     Peak level 86.3 %
     Range quality 100.0 %
     Test CRC EF228C23
     Copy CRC EF228C23
     Copy OK

No errors occurred

 
AccurateRip summary
 
Track  1  accurately ripped (confidence 9)  [FDCA73A9]
Track  2  accurately ripped (confidence 9)  [0EDD4281]
Track  3  accurately ripped (confidence 9)  [0472D25F]
Track  4  accurately ripped (confidence 9)  [A6DA882E]
Track  5  accurately ripped (confidence 9)  [0C8D6D3B]
Track  6  accurately ripped (confidence 9)  [427110B0]
Track  7  accurately ripped (confidence 9)  [EAA2F523]
Track  8  accurately ripped (confidence 9)  [368E6EB3]
Track  9  accurately ripped (confidence 9)  [38C97076]
Track 10  accurately ripped (confidence 9)  [2CA1E6A6]
Track 11  accurately ripped (confidence 9)  [2C3F99AA]
Track 12  accurately ripped (confidence 9)  [DB2A33D8]
Track 13  accurately ripped (confidence 9)  [CAD5AE55]
Track 14  accurately ripped (confidence 9)  [967618D1]
Track 15  accurately ripped (confidence 9)  [449FBA64]
Track 16  accurately ripped (confidence 9)  [A8716739]
Track 17  accurately ripped (confidence 9)  [239CA572]
Track 18  accurately ripped (confidence 9)  [D82C66EB]
Track 19  accurately ripped (confidence 9)  [72E71536]
Track 20  accurately ripped (confidence 9)  [4BDA34AA]
 
All tracks accurately ripped

End of status report
[/CODE]

[b][color=orange][::Banda::][/color][/b]
30Kb/s dalle 18 alle 23

[b][color=orange][::Ringraziamenti::][/color][/b]
[b]Ringrazio:[/b]
Un certo sito per il found
Imageshack per l'hosting
Wikipedia per le info
[URL=http://forum.tntvillage.scambioetico.org/tntforum/index.php?showtopic=255863]scraft65[/URL] per la richiesta
Tutti quelli che scaricheranno e rimarranno in seed
[FLAC] J. S. Bach - 6 Partitas by András Schiff/CD1/01 - J.S.Bach - Andras Schiff - Partita No.1 in B flat major, BWV 825 - 01. Praeludium.flac 6.395 MB
[FLAC] J. S. Bach - 6 Partitas by András Schiff/CD1/02 - J.S.Bach - Andras Schiff - Partita No.1 in B flat major, BWV 825 - 02. Allemande.flac 9.472 MB
[FLAC] J. S. Bach - 6 Partitas by András Schiff/CD1/03 - J.S.Bach - Andras Schiff - Partita No.1 in B flat major, BWV 825 - 03. Corrente.flac 9.332 MB
Gathering some info...

Register and log in Isohunt and see no captcha anymore!

4000 symbols left
Hash 1e5b9c03b4e11c4cd9899c68231b14973a78cec2

Related torrents for "[FLAC] J. S. Bach - 6 Partitas by András Schiff (BWV 825-830) - Musica Classica"

Torrent search:

lossless lossless