Campion

Campion (1989)

Crime, Mystery

Full description

Holy Smoke (1999) - Jane Campion - multsbs

Size 1.469 GB   12 seeders     Added 2011-10-28 03:13:54

Stream torrent
Starting‥ You need BitLord! Get it from 1BitLord.com
10
To download or stream you need BitLord. Visit them at BitLord.com
While on a journey of discovery in exotic India, beautiful young Ruth Barron falls under the influence of a charismatic religious guru. Her desperate parents then hire PJ Waters, a macho cult de-programmer who confronts Ruth in a remote desert hideaway. But PJ quickly learns that he's met his match in the sexy, intelligent and iron-willed Ruth! (IMDb)\r\n\r\nDirector:\r\nJane Campion\r\n\r\nWriters:\r\nAnna Campion, Jane Campion\r\n\r\nStars:\r\nKate Winslet, Harvey Keitel and Julie Hamilton\r\n\r\nCD #1\r\n\r\nFormat                           : AVI\r\nFormat/Info                      : Audio Video Interleave\r\nFile size                        : 700 MiB\r\nDuration                         : 51mn 0s\r\nOverall bit rate                 : 1 920 Kbps\r\nWriting application              : VirtualDubMod 1.5.4.1 (build 2178/release)\r\nWriting library                  : VirtualDubMod build 2178/release\r\n\r\nVideo\r\nID                               : 0\r\nFormat                           : MPEG-4 Visual\r\nFormat profile                   : Advanced Simple@L5\r\nFormat settings, BVOP            : Yes\r\nFormat settings, QPel            : No\r\nFormat settings, GMC             : No warppoints\r\nFormat settings, Matrix          : Custom\r\nCodec ID                         : XVID\r\nCodec ID/Hint                    : XviD\r\nDuration                         : 51mn 0s\r\nBit rate                         : 1 465 Kbps\r\nWidth                            : 624 pixels\r\nHeight                           : 336 pixels\r\nDisplay aspect ratio             : 1.857\r\nFrame rate                       : 25.000 fps\r\nColor space                      : YUV\r\nChroma subsampling               : 4:2:0\r\nBit depth                        : 8 bits\r\nScan type                        : Progressive\r\nBits/(Pixel*Frame)               : 0.280\r\nStream size                      : 535 MiB (76%)\r\nWriting library                  : XviD 1.2.0SMP (UTC 2006-01-08)\r\n\r\nAudio\r\nID                               : 1\r\nFormat                           : AC-3\r\nFormat/Info                      : Audio Coding 3\r\nMode extension                   : CM (complete main)\r\nCodec ID                         : 2000\r\nDuration                         : 51mn 0s\r\nBit rate mode                    : Constant\r\nBit rate                         : 448 Kbps\r\nChannel(s)                       : 6 channels\r\nChannel positions                : Front: L C R, Side: L R, LFE\r\nSampling rate                    : 48.0 KHz\r\nBit depth                        : 16 bits\r\nStream size                      : 163 MiB (23%)\r\nAlignment                        : Aligned on interleaves\r\nInterleave, duration             : 96 ms (2.40 video frames)\r\nInterleave, preload duration     : 96 ms\r\nLanguage                         : English / English\r\n\r\nCD #2\r\n\r\nFormat                           : AVI\r\nFormat/Info                      : Audio Video Interleave\r\nFile size                        : 700 MiB\r\nDuration                         : 59mn 1s\r\nOverall bit rate                 : 1 658 Kbps\r\nWriting application              : VirtualDubMod 1.5.4.1 (build 2178/release)\r\nWriting library                  : VirtualDubMod build 2178/release\r\n\r\nVideo\r\nID                               : 0\r\nFormat                           : MPEG-4 Visual\r\nFormat profile                   : Advanced Simple@L5\r\nFormat settings, BVOP            : Yes\r\nFormat settings, QPel            : No\r\nFormat settings, GMC             : No warppoints\r\nFormat settings, Matrix          : Custom\r\nCodec ID                         : XVID\r\nCodec ID/Hint                    : XviD\r\nDuration                         : 59mn 1s\r\nBit rate                         : 1 205 Kbps\r\nWidth                            : 624 pixels\r\nHeight                           : 336 pixels\r\nDisplay aspect ratio             : 1.857\r\nFrame rate                       : 25.000 fps\r\nColor space                      : YUV\r\nChroma subsampling               : 4:2:0\r\nBit depth                        : 8 bits\r\nScan type                        : Progressive\r\nBits/(Pixel*Frame)               : 0.230\r\nStream size                      : 509 MiB (73%)\r\nWriting library                  : XviD 1.2.0SMP (UTC 2006-01-08)\r\n\r\nAudio\r\nID                               : 1\r\nFormat                           : AC-3\r\nFormat/Info                      : Audio Coding 3\r\nMode extension                   : CM (complete main)\r\nCodec ID                         : 2000\r\nDuration                         : 58mn 49s\r\nBit rate mode                    : Constant\r\nBit rate                         : 448 Kbps\r\nChannel(s)                       : 6 channels\r\nChannel positions                : Front: L C R, Side: L R, LFE\r\nSampling rate                    : 48.0 KHz\r\nBit depth                        : 16 bits\r\nVideo delay                      : 8ms\r\nStream size                      : 189 MiB (27%)\r\nAlignment                        : Split accross interleaves\r\nInterleave, duration             : 96 ms (2.41 video frames)\r\nInterleave, preload duration     : 96 ms\r\nLanguage                         : English / English\r\n\r\nKG by prasopes - TKS!!!
CD1-ENG.srt 47.903 KB
CD2-ENG.srt 38.765 KB
holy smoke_spa_1.srt 45.132 KB
Gathering some info...

Register and log in Isohunt and see no captcha anymore!

4000 symbols left
Hash 8172FC1032BB804A8BF75D4056C70FB733DFA23E

Related torrents for "Holy Smoke (1999) - Jane Campion - multsbs"

Torrent search:

1999