imdb
rating

7.1
Five

Five (2011)

Comedy, Drama

Full description
quality   bd hdtv dvdrip dvdr

Five 2011 HDTVRiP XViD OCW avi

Size 719.688 MB   0 seeders     Added 2011-10-29 03:18:30

Stream torrent
Starting‥ You need BitLord! Get it from 1BitLord.com
To download or stream you need BitLord. Visit them at BitLord.com
Looking for fast download speeds come join http://dream-torrents.com for all the latest releases, with friendly staff online radio and games and much much more.\r\n-\r\n-\r\n.Five 2011 HDTVRiP XViD-OCW\r\n\r\n\r\nPlot : An anthology of five short films exploring the impact of breast cancer on people's lives.[/quote]\r\n\r\n\r\n\r\nInfomation\r\n\r\nComplete name : Five.2011.HDTV.XViD.OCW.avi\r\n\r\nFormat : AVI\r\n\r\nFormat/Info : Audio Video Interleave\r\n\r\nFile size : 686 MiB\r\n\r\nDuration : 1h 30mn\r\n\r\nOverall bit rate : 1 065 Kbps\r\n\r\nWriting library : MPlayer\r\n\r\n\r\n\r\nVideo\r\n\r\nID : 0\r\n\r\nFormat : MPEG-4 Visual\r\n\r\nFormat profile : Advanced Simple@L5\r\n\r\nFormat settings, BVOP : 2\r\n\r\nFormat settings, QPel : No\r\n\r\nFormat settings, GMC : No warppoints\r\n\r\nFormat settings, Matrix : Default (H.263)\r\n\r\nCodec ID : XVID\r\n\r\nCodec ID/Hint : XviD\r\n\r\nDuration : 1h 30mn\r\n\r\nBit rate : 797 Kbps\r\n\r\nWidth : 720 pixels\r\n\r\nHeight : 304 pixels\r\n\r\nDisplay aspect ratio : 2.35:1\r\n\r\nFrame rate : 23.976 fps\r\n\r\nColor space : YUV\r\n\r\nChroma subsampling : 4:2:0\r\n\r\nBit depth : 8 bits\r\n\r\nScan type : Progressive\r\n\r\nCompression mode : Lossy\r\n\r\nBits/(Pixel*Frame) : 0.152\r\n\r\nStream size : 514 MiB (75%)\r\n\r\nWriting library : XviD 63\r\n\r\n\r\n\r\nAudio\r\n\r\nID : 1\r\n\r\nFormat : MPEG Audio\r\n\r\nFormat version : Version 1\r\n\r\nFormat profile : Layer 3\r\n\r\nMode : Joint stereo\r\n\r\nMode extension : MS Stereo\r\n\r\nCodec ID : 55\r\n\r\nCodec ID/Hint : MP3\r\n\r\nDuration : 1h 30mn\r\n\r\nBit rate mode : Constant\r\n\r\nBit rate : 256 Kbps\r\n\r\nChannel(s) : 2 channels\r\n\r\nSampling rate : 44.1 KHz\r\n\r\nCompression mode : Lossy\r\n\r\nDelay relative to video : 42ms\r\n\r\nStream size : 165 MiB (24%)\r\n\r\nAlignment : Aligned on interleaves\r\n\r\nInterleave, duration : 26 ms (0.63 video frame)\r\n\r\nInterleave, preload duration : 809 ms\r\n\r\nWriting library : LAME3.98.4
Five 2011 HDTVRiP XViD-OCW.avi 719.688 MB
Gathering some info...

Register and log in Isohunt and see no captcha anymore!

4000 symbols left
Hash AB44F075EDAD76FADAFA3D10735C133EE3C46312

Related torrents for "Five 2011 HDTVRiP XViD OCW avi"

Torrent search:

hdtv 2011