Omar Rodriguez-Lopez - The Apocalypse Inside Of An Orange[Eac Mpc Cue-TNTVillage]

Size 98.068 MB   0 seeders     Added 2011-10-29 19:00:11

Stream torrent
Starting‚Ä• You need BitLord! Get it from 1BitLord.com
To download or stream you need BitLord. Visit them at BitLord.com
.: Original Release:.
http://www.tntvillage.scambioetico.org/?showtopic=268333

[::Cover::]

[img]image[/img]

Artist: Omar Rodriguez-Lopez Quintet
Title: The Apocalypse Inside Of An Orange
Genre: Alternative
Year: 2008 

[ :: Tracklist :: ]
1. Melting Chariots
2. Knee Deep In The Loving Hush Of Heresy
3. Jacob Van Lennepkade II
4. Fuerza De Liberacion
5. Spared From The Insult List
6. Baby Fat
7. The Apocalypse Inside Of An Orange
8. Coma Pony

[ :: Technical Data :: ]
Encoder: EAC 1.02 b3 (Secure Mode,Test & Copy)
Codec: Musepack 1.16
Profile: Extreme

EAC LOG:
[quote]
	Exact Audio Copy V1.0 beta 3 from 29. August 2011

EAC extraction logfile from 16. October 2011, 14:00

Omar Rodriguez Lopez Quintet / The Apocalypse Inside Of An Orange

Used drive : JLMS XJ-HD166S Adapter: 1 ID: 0

Read mode : Secure
Utilize accurate stream : Yes
Defeat audio cache : Yes
Make use of C2 pointers : Yes

Read offset correction : 12
Overread into Lead-In and Lead-Out : No
Fill up missing offset samples with silence : Yes
Delete leading and trailing silent blocks : No
Null samples used in CRC calculations : Yes
Used interface : Installed external ASPI interface
Gap handling : Appended to previous track

Used output format : User Defined Encoder
Selected bitrate : 192 kBit/s
Quality : High
Add ID3 tag : No
Command line compressor : C:\NoUAC\Exact Audio Copy\codec\mppenc.exe
Additional command line options : --extreme --ape2 --artist "%artist%" --title "%title%" --album "%albumtitle%"
--year "%year%" --track "%tracknr%" --genre "%genre%"
--comment "EAC1.0b3 Secure Mode, Test & Copy, AccurateRip, Q6 (by Paky)" %source%


TOC of the extracted CD

Track | Start | Length | Start sector | End sector
---------------------------------------------------------
1 | 0:00.00 | 3:53.39 | 0 | 17513
2 | 3:53.39 | 6:06.61 | 17514 | 45024
3 | 10:00.25 | 18:39.68 | 45025 | 129017
4 | 28:40.18 | 5:32.40 | 129018 | 153957
5 | 34:12.58 | 6:07.52 | 153958 | 181534
6 | 40:20.35 | 2:51.37 | 181535 | 194396
7 | 43:11.72 | 11:12.37 | 194397 | 244833
8 | 54:24.34 | 6:39.62 | 244834 | 274820


Track 1

Filename D:\Omar Rodriguez Lopez Quintet (2008) - The Apocalypse Inside Of An Orange\01 - Melting Chariots.wav

Pre-gap length 0:00:02.00

Peak level 97.7 %
Extraction speed 3.8 X
Track quality 100.0 %
Test CRC 1C0726EC
Copy CRC 1C0726EC
Accurately ripped (confidence 5) [CC8571D6] (AR v1)
Copy OK

Track 2

Filename D:\Omar Rodriguez Lopez Quintet (2008) - The Apocalypse Inside Of An Orange\02 - Knee Deep In The Loving Hush Of Heresy.wav

Pre-gap length 0:00:00.05

Peak level 97.7 %
Extraction speed 4.6 X
Track quality 100.0 %
Test CRC D9408ECF
Copy CRC D9408ECF
Accurately ripped (confidence 5) [ACA2ED36] (AR v1)
Copy OK

Track 3

Filename D:\Omar Rodriguez Lopez Quintet (2008) - The Apocalypse Inside Of An Orange\03 - Jacob Van Lennepkade II.wav

Peak level 97.7 %
Extraction speed 6.3 X
Track quality 100.0 %
Test CRC DF2FB8AF
Copy CRC DF2FB8AF
Accurately ripped (confidence 5) [74D53A5D] (AR v1)
Copy OK

Track 4

Filename D:\Omar Rodriguez Lopez Quintet (2008) - The Apocalypse Inside Of An Orange\04 - Fuerza De Liberacion.wav

Peak level 97.7 %
Extraction speed 6.5 X
Track quality 100.0 %
Test CRC 9DA3EACE
Copy CRC 9DA3EACE
Accurately ripped (confidence 5) [F2BFE582] (AR v1)
Copy OK

Track 5

Filename D:\Omar Rodriguez Lopez Quintet (2008) - The Apocalypse Inside Of An Orange\05 - Spared From The Insult List.wav

Peak level 98.8 %
Extraction speed 7.1 X
Track quality 100.0 %
Test CRC 6A55F49F
Copy CRC 6A55F49F
Accurately ripped (confidence 5) [F1F47D61] (AR v1)
Copy OK

Track 6

Filename D:\Omar Rodriguez Lopez Quintet (2008) - The Apocalypse Inside Of An Orange\06 - Baby Fat.wav

Peak level 97.7 %
Extraction speed 6.4 X
Track quality 100.0 %
Test CRC D59EB3EA
Copy CRC D59EB3EA
Accurately ripped (confidence 5) [91DFD80B] (AR v1)
Copy OK

Track 7

Filename D:\Omar Rodriguez Lopez Quintet (2008) - The Apocalypse Inside Of An Orange\07 - The Apocalypse Inside Of An Orange.wav

Peak level 97.7 %
Extraction speed 8.3 X
Track quality 100.0 %
Test CRC 21EADB8E
Copy CRC 21EADB8E
Accurately ripped (confidence 5) [65A8E4C7] (AR v1)
Copy OK

Track 8

Filename D:\Omar Rodriguez Lopez Quintet (2008) - The Apocalypse Inside Of An Orange\08 - Coma Pony.wav

Peak level 97.7 %
Extraction speed 8.4 X
Track quality 100.0 %
Test CRC 88A984B0
Copy CRC 88A984B0
Accurately ripped (confidence 2) [2FCC9686] (AR v1)
Copy OK


All tracks accurately ripped

No errors occurred

End of status report

==== Log checksum 6F62739C08F89B89D70F7DFCE4E82A5F752FCD1F7D12B20DB77D8B0DF94C5BBE ====[/quote]
Omar Rodriguez Lopez Quintet (2008) - The Apocalypse Inside Of An Orange/01 - Melting Chariots.mpc 6.285 MB
Omar Rodriguez Lopez Quintet (2008) - The Apocalypse Inside Of An Orange/02 - Knee Deep In The Loving Hush Of Heresy.mpc 9.729 MB
Omar Rodriguez Lopez Quintet (2008) - The Apocalypse Inside Of An Orange/03 - Jacob Van Lennepkade II.mpc 30.116 MB
Gathering some info...

Register and log in Isohunt and see no captcha anymore!

4000 symbols left
Hash f3aaae43406fb5e04220980d2070bc94e5658e46