imdb
rating

6.5
Margaret

Margaret (2011)

Drama

Full description
quality   fullhd bd dvdrip x264 hd h264

Margaret .2011. 480p. BRRip.XviD.AC3-PRESTiGE

Size 624.765 MB   0 seeders     Added 2011-10-29 20:09:26

Stream torrent
Starting‥ You need BitLord! Get it from BitLord.com
To download or stream you need BitLord. Visit them at BitLord.com
http://www.scenetime.com    -   SceneTime [ We been having it ] !!!


How come you press harder on a remote control when you know the battery is dead? so you better seed to get speed ;)

        Seed back for speed


...................................NFO:.................................................General
  
Format                           : AVI
Format/Info                      : Audio Video Interleave
Duration                         : 1h 51mn
Overall bit rate                 : 866 Kbps

Video
ID                               : 0
Format                           : MPEG-4 Visual
Format profile                   : Advanced Simple@L5
Format settings, BVOP            : 2
Format settings, QPel            : No
Format settings, GMC             : No warppoints
Format settings, Matrix          : Default (H.263)
Codec ID                         : XVID
Codec ID/Hint                    : XviD
Duration                         : 1h 51mn
Bit rate                         : 730 Kbps
Width                            : 720 pixels
Height                           : 304 pixels
Display aspect ratio             : 2.35:1
Frame rate                       : 29.970 fps
Color space                      : YUV
Chroma subsampling               : 4:2:0
Bit depth                        : 8 bits
Scan type                        : Progressive
Compression mode                 : Lossy
Bits/(Pixel*Frame)               : 0.111
Stream size                      : 585 MiB (84%)


Audio
ID                               : 1
Format                           : MPEG Audio
Format version                   : Version 1
Format profile                   : Layer 3
Mode                             : Joint stereo
Mode extension                   : MS Stereo
Codec ID                         : 55
Codec ID/Hint                    : MP3
Duration                         : 1h 51mn
Bit rate mode                    : Constant
Bit rate                         : 128 Kbps
Channel(s)                       : 2 channels
Sampling rate                    : 48.0 KHz
Compression mode                 : Lossy
Stream size                      : 102 MiB (15%)
Alignment                        : Aligned on interleaves
Interleave, duration             : 133 ms (4.00 video frames)
Interleave, preload duration     : 216 ms		
Margaret .2011. 480p. BRRip.XviD.AC3-PRESTiGE/480p. BRRip.XviD.AC3-PRESTiGE.nfo 3.048 KB
Margaret .2011. 480p. BRRip.XviD.AC3-PRESTiGE/Margaret .2011. 480p. BRRip.XviD.AC3-PRESTiGE.avi 624.762 MB
Margaret .2011. 480p. BRRip.XviD.AC3-PRESTiGE/Torrent downloaded from Demonoid.me.txt 46 B
Gathering some info...

Register and log in Isohunt and see no captcha anymore!

4000 symbols left
Hash 39b2a63c5e5b8b757701b3c9892e82931feb67b4

Related torrents for "Margaret .2011. 480p. BRRip.XviD.AC3-PRESTiGE"

Torrent search:

bd 2011