U2 - Numb Remix (1995) VHSrip (part 2).avi

Size 47.139 MB   0 seeders     Added 2011-10-30 02:47:43

Stream torrent
Starting‥ You need BitLord! Get it from BitLord.com
To download or stream you need BitLord. Visit them at BitLord.com
U2 - Numb remix (1994) was the second of a three part music video VHS retail tape. VHSrip. 4min 52sec. The full 14 min tape is available in TPB link below. --Rare. Free to you. Please seed-- http://thepiratebay.org/torrent/6779957 http://www.imdb.com/title/tt0275010/ http://bayimg.com/haKGmAadK The music video (directed by Kevin Godley) featured The Edge staring straight into the camera sitting under a dripping tap, while strange things happen to him, such as having feet put on his face, being tied down by the other group members, and a belly dancer perform in front of him. The video remix was produced by the performance group Emergency Broadcast Network and features a number of random television and audio clips. The video and sound segments from the video remix were eventually incorporated into the band's live performances of the song on the Zoo TV Tour. The commercial single itself was released in video format only on VHS, echoing the television theme from their Zoo TV Tour... http://en.wikipedia.org/wiki/Numb_(U2_song) General Format : AVI Format/Info : Audio Video Interleave File size : 45.0 MiB Duration : 4mn 52s Overall bit rate : 1 288 Kbps Writing application : VirtualDubMod 1.5.4.1 (build 2178/release) Writing library : VirtualDubMod build 2178/release Video Format : MPEG-4 Visual Format profile : Advanced Simple@L5 Format settings, BVOP : 1 Format settings, QPel : No Format settings, GMC : No warppoints Format settings, Matrix : Custom Codec ID : XVID Codec ID/Hint : XviD Duration : 4mn 52s Bit rate : 1 155 Kbps Width : 448 pixels Height : 336 pixels Display aspect ratio : 4:3 Frame rate : 29.970 fps Color space : YUV Chroma subsampling : 4:2:0 Bit depth : 8 bits Scan type : Progressive Compression mode : Lossy Bits/(Pixel*Frame) : 0.256 Stream size : 40.3 MiB (90%) Writing library : XviD 1.2.1 (UTC 2008-12-04) Audio Format : MPEG Audio Format version : Version 1 Format profile : Layer 3 Mode : Joint stereo Mode extension : MS Stereo Codec ID : 55 Codec ID/Hint : MP3 Duration : 4mn 52s Bit rate mode : Variable Bit rate : 119 Kbps Nominal bit rate : 128 Kbps Channel(s) : 2 channels Sampling rate : 48.0 KHz Compression mode : Lossy Stream size : 4.15 MiB (9%) Alignment : Aligned on interleaves Interleave, duration : 24 ms (0.72 video frame) Interleave, preload duration : 407 ms Writing library : LAME3.98r Encoding settings : -m j -V 4 -q 2 -lowpass 17 --abr 128
U2 - Numb Remix (1995) VHSrip (part 2).avi 47.139 MB
Gathering some info...

Register and log in Isohunt and see no captcha anymore!

4000 symbols left
Hash 7E7697F9B7EC20784A741945A735B769C173829C