U2 - Numb (1995) VHSrip (full 3 part retail tape).avi

Size 115.124 MB   0 seeders     Added 2011-10-30 02:47:48

Stream torrent
Starting‥ You need BitLord! Get it from 1BitLord.com
To download or stream you need BitLord. Visit them at BitLord.com
U2 - Numb was a three part music video VHS retail tape. 14 minutes 30 seconds. --Rare. Free to you. Please seed-- http://www.imdb.com/title/tt0275010/ http://bayimg.com/haKGmAadK U2 - Numb (1993) VHSrip 4:23 U2 - Numb remix (1995) VHSrip 4:52 U2 - Love is Blindness (1991) VHSrip Zoo Tour* 4.23 The music video (directed by Kevin Godley) featured The Edge staring straight into the camera sitting under a dripping tap, while strange things happen to him, such as having feet put on his face, being tied down by the other group members, and a belly dancer perform in front of him. The video remix was produced by the performance group Emergency Broadcast Network and features a number of random television and audio clips. The video and sound segments from the video remix were eventually incorporated into the band's live performances of the song on the Zoo TV Tour. The commercial single itself was released in video format only on VHS, echoing the television theme from their Zoo TV Tour... http://en.wikipedia.org/wiki/Numb_(U2_song) ------------------------ * U2 - Love is Blindness (1991) VHSrip Zoo Tour 4.23 A video for the song, directed by Matt Mahurin, was included on the 1994 VHS single "Numb". It featured the studio recording set to footage of the Zoo TV Tour. http://en.wikipedia.org/wiki/Love_Is_Blindness. -------------------------- General Format : AVI Format/Info : Audio Video Interleave File size : 110 MiB Duration : 14mn 30s Overall bit rate : 1 058 Kbps Writing application : VirtualDubMod 1.5.4.1 (build 2178/release) Writing library : VirtualDubMod build 2178/release Video Format : MPEG-4 Visual Format profile : Advanced Simple@L5 Format settings, BVOP : 1 Format settings, QPel : No Format settings, GMC : No warppoints Format settings, Matrix : Custom Codec ID : XVID Codec ID/Hint : XviD Duration : 14mn 30s Bit rate : 924 Kbps Width : 400 pixels Height : 304 pixels Display aspect ratio : 4:3 Frame rate : 29.970 fps Color space : YUV Chroma subsampling : 4:2:0 Bit depth : 8 bits Scan type : Progressive Compression mode : Lossy Bits/(Pixel*Frame) : 0.253 Stream size : 95.9 MiB (87%) Writing library : XviD 1.2.1 (UTC 2008-12-04) Audio Format : MPEG Audio Format version : Version 1 Format profile : Layer 3 Mode : Joint stereo Mode extension : MS Stereo Codec ID : 55 Codec ID/Hint : MP3 Duration : 14mn 30s Bit rate mode : Variable Bit rate : 120 Kbps Nominal bit rate : 128 Kbps Channel(s) : 2 channels Sampling rate : 48.0 KHz Compression mode : Lossy Stream size : 12.4 MiB (11%) Alignment : Aligned on interleaves Interleave, duration : 24 ms (0.72 video frame) Interleave, preload duration : 366 ms Writing library : LAME3.98r Encoding settings : -m j -V 4 -q 2 -lowpass 17 --abr 128
U2 - Numb (1995) VHSrip (full 3 part retail tape).avi 115.124 MB
Gathering some info...

Register and log in Isohunt and see no captcha anymore!

4000 symbols left
Hash D8E066CE1E7AF7A948ABE1F87A85B572DF2C5A86