Global Indian Music Awards (GiMA)

Global Indian Music Awards (GiMA) (2014)

Full description

GiMA Global Indian Music Awards Hindi 30th October 2011@

Size 884.614 MB   0 seeders     Added 2011-10-31 17:01:34

Stream torrent
Starting‥ You need BitLord! Get it from BitLord.com
10
To download or stream you need BitLord. Visit them at BitLord.com
[center][color=red][font=Georgia][b]mastitorrents.com

http://mastitorrents.com/forums/index.php

Info :- Format : AVI Format/Info : Audio Video Interleave File size : 844 MiB Duration : 2h 46mn Overall bit rate : 710 Kbps Writing library : VirtualDub build 32842/release Video ID : 0 Format : MPEG-4 Visual Format profile : Advanced Simple@L5 Format settings, BVOP : Yes Format settings, QPel : No Format settings, GMC : No warppoints Format settings, Matrix : Default (H.263) Muxing mode : Packed bitstream Codec ID : XVID
Codec ID/Hint : XviD
Duration : 2h 46mn
Bit rate : 652 Kbps
Width : 640 pixels
Height : 360 pixels
Display aspect ratio : 16:9
Frame rate : 25.000 fps
Color space : YUV
Chroma subsampling : 4:2:0
Bit depth : 8 bits
Scan type : Progressive
Bits/(Pixel*Frame) : 0.113
Stream size : 775 MiB (92%)
Writing library : XviD 1.2.1 (UTC 2008-12-04)
Audio
ID : 1
Format : MPEG Audio
Format version : Version 2
Format profile : Layer 3
Mode : Joint stereo
Mode extension : Intensity Stereo + MS Stereo
Codec ID : 55 Codec ID/Hint : MP3 Duration : 2h 46mn
Bit rate mode : Constant
Bit rate : 48.0 Kbps
Channel(s) : 2 channels
Sampling rate : 24.0 KHz
Stream size : 57.0 MiB (7%)
Alignment : Split accross interleaves
Interleave, duration : 40 ms (1.00 video frame)
Interleave, preload duration : 500 ms [/b][/font][/color]

[img]image[/img]
[img]image[/img]
[img]image[/img]
[img]image[/img]
[img]image[/img]
[img]image[/img][/center]
GiMA Global Indian Music Awards 30th October 2011(www.mastitorrents.com)/Catch Us On Facebook.txt 212 B
GiMA Global Indian Music Awards 30th October 2011(www.mastitorrents.com)/GiMA Global Indian Music Awards 30th October 2011(www.mastitorrents.com).avi 884.614 MB
GiMA Global Indian Music Awards 30th October 2011(www.mastitorrents.com)/www.mastitorrents.com.txt 538 B
Gathering some info...

Register and log in Isohunt and see no captcha anymore!

4000 symbols left
Hash 61c5b32658f0e891827d81371ab7fc17589ad734

Related torrents for "GiMA Global Indian Music Awards Hindi 30th October 2011@"

Torrent search:

hindi 2011