imdb
rating

5.2
Apollo 18

Apollo 18 (2011)

Horror, Science Fiction, Thriller

Full description
quality   screener hd h264 telesync dvd

Apollo 18 2011 R5 LiNE XviD VISUALiSE

Size 1.002 GB   0 seeders     Added 2011-11-03 04:17:42

Stream torrent
Starting‥ You need BitLord! Get it from 1BitLord.com
To download or stream you need BitLord. Visit them at BitLord.com
Looking for fast download speeds come join http://dream-torrents.com for all the latest releases, with friendly staff online radio and games and much much more.\r\n-\r\n-\r\n.Apollo 18 2011 R5 LiNE XviD - VISUALiSE\r\n\r\n\r\nFormat: Xvid\r\n\r\nLanguage: English\r\n\r\nSubtitles: No\r\n\r\nImdb: http://www.imdb.com/title/tt1772240/\r\n\r\n\r\n\r\n\r\n\r\nDecades-old found footage from NASA's abandoned Apollo 18 mission,\r\n\r\nwhere two American astronauts were sent on a secret expedition,\r\n\r\nreveals the reason the U.S. has never returned to the moon.\r\n\r\n\r\n\r\nSources:\r\n\r\nVideo: Russians - Many Thanks\r\n\r\nAudio: MiSTERE - Many Thanks\r\n\r\n\r\n\r\nRelease Notes:\r\n\r\nThanks to the russians for DVD9 and big thanks\r\n\r\nto MiSTERE for the FULL LiNE\r\n\r\nRipped video and ran sum filters and then\r\n\r\nmuxed audio to encode\r\n\r\nenjoy.\r\n\r\n\r\n\r\n\r\n\r\n\r\n\r\nVideo\r\n\r\nID : 0\r\n\r\nFormat : MPEG-4 Visual\r\n\r\nFormat profile : Advanced Simple@L5\r\n\r\nFormat settings, BVOP : 2\r\n\r\nFormat settings, QPel : No\r\n\r\nFormat settings, GMC : No warppoints\r\n\r\nFormat settings, Matrix : Default (H.263)\r\n\r\nCodec ID : XVID\r\n\r\nCodec ID/Hint : XviD\r\n\r\nDuration : 1h 23mn\r\n\r\nBit rate : 1 470 Kbps\r\n\r\nWidth : 720 pixels\r\n\r\nHeight : 356 pixels\r\n\r\nDisplay aspect ratio : 2.022\r\n\r\nFrame rate : 25.000 fps\r\n\r\nColor space : YUV\r\n\r\nChroma subsampling : 4:2:0\r\n\r\nBit depth : 8 bits\r\n\r\nScan type : Progressive\r\n\r\nCompression mode : Lossy\r\n\r\nBits/(Pixel*Frame) : 0.229\r\n\r\nStream size : 874 MiB (91%)\r\n\r\nWriting library : XviD 63\r\n\r\n\r\n\r\nAudio\r\n\r\nID : 1\r\n\r\nFormat : MPEG Audio\r\n\r\nFormat version : Version 1\r\n\r\nFormat profile : Layer 3\r\n\r\nMode : Joint stereo\r\n\r\nMode extension : MS Stereo\r\n\r\nCodec ID : 55\r\n\r\nCodec ID/Hint : MP3\r\n\r\nDuration : 1h 23mn\r\n\r\nBit rate mode : Constant\r\n\r\nBit rate : 128 Kbps\r\n\r\nChannel(s) : 2 channels\r\n\r\nSampling rate : 44.1 KHz\r\n\r\nCompression mode : Lossy\r\n\r\nStream size : 76.1 MiB (8%)\r\n\r\nAlignment : Aligned on interleaves\r\n\r\nInterleave, duration : 40 ms (1.00 video frame)\r\n\r\nWriting library : LAME3.98r\r\n\r\nEncoding settings : -m j -V 4 -q 2 -lowpass 17 -b 128\r\n\r\n\r\n \r\n This image has been resized. Click the image to view the full image. The original image is sized: 720 x 356\r\n\r\n \r\n This image has been resized. Click the image to view the full image. The original image is sized: 720 x 356\r\n\r\n \r\n This image has been resized. Click the image to view the full image. The original image is sized: 720 x 356\r\n\r\n \r\n This image has been resized. Click the image to view the full image. The original image is sized: 720 x 356
Apollo 18 2011 R5 LiNE XviD - VISUALiSE.avi 1.002 GB
Apollo 18 2011 R5 LiNE XviD - VISUALiSE.nfo 3.631 KB
Gathering some info...

Register and log in Isohunt and see no captcha anymore!

4000 symbols left
Hash 83576A9F3E42FB896029AF0546FA4A0109F11EF5

Related torrents for "Apollo 18 2011 R5 LiNE XviD VISUALiSE"

Torrent search:

dvd 2011