A Very Harold ampamp Kumar Christmas (2011) DVDRip XviD - Advent

Size 726.401 MB   0 seeders     Added 2011-11-06 04:03:36

To download or stream you need BitLord. Visit them at BitLord.com
IMDb: http://www.imdb.com/title/tt1268799/ ----------------------------------------- A Very Harold & Kumar Christmas (2011) DVDRip_XviD - Advent ----------------------------------------------------------- Details: ------- Video ID : 0 Format : MPEG-4 Visual Format profile : AdvancedSimple@L5 Format settings, BVOP : Yes Format settings, QPel : No Format settings, GMC : No warppoints Format settings, Matrix : Custom Codec ID : XVID Codec ID/Hint : XviD Duration : 1h 30mn Bit rate : 1 631 Kbps Width : 720 pixels Height : 304 pixels Display aspect ratio : 2.35:1 Frame rate : 23.976 fps Resolution : 24 bits Colorimetry : 4:2:0 Scan type : Progressive Bits/(Pixel*Frame) : 0.311 Stream size : 691 MiB (99%) Writing library : XviD 58 Audio ID : 1 Format : AC-3 Format/Info : Audio Coding 3 Codec ID : 2000 Duration : 1h 30mn Bit rate mode : Constant Bit rate : 384 Kbps Channel(s) : 6 channels Channel positions : Front: L C R, Surround: L R, LFE Sampling rate : 48.0 KHz Stream size : 293 MiB (19%) Alignment : Aligned on interleaves Interleave, duration : 64 ms (1.54 video frames) Interleave, preload duration : 192 ms ----------------------------------------- Plot: ---- Six years after their Guantanamo Bay adventure, stoner buds Harold Lee and Kumar Patel cause a holiday fracas by inadvertently burning down Harold's father-in-law's prize Christmas tree. Screenshots: ----------- image/ image/ image/ image/ image/ image/ image/ image/ image/ image/ -----------------------------------------------------
1.jpg 68.893 KB
10.jpg 61.54 KB
2.jpg 82.259 KB
Gathering some info...

Register and log in Isohunt and see no captcha anymore!

4000 symbols left
Hash 029F67AF17CAC2B1D30687E2715EBF4C1E0EBB2F