Alan Skidmore, Mike Osborne, John Surman - SOS [Eac Mpc Cue-TNTVillage]

Size 269.878 MB   4 seeders     Added 2011-11-06 22:49:48

Stream torrent
Starting‚Ä• You need BitLord! Get it from 1BitLord.com
To download or stream you need BitLord. Visit them at BitLord.com
.: Original Release:.
http://www.tntvillage.scambioetico.org/?act=showrelease&id=270651

[::Cover::]

[img]image[/img]

Artists: Alan Skidmore, Mike Osborne, John Surman
Title: SOS
Genre: Jazz
Year: 1975

[ :: Tracklist :: ]
01. Country Dance
02. Wherever I Am
03. Chordary
04. Where's Junior
05. Cycle Motion
06. 1st
07. Goliath
08. Calypso

[ :: Technical Data :: ]
Encoder: EAC 1.02 b3 (Secure Mode,Test & Copy)
Codec: Flac 1.2.1
Profile: 6


EAC LOG:
[quote]
Exact Audio Copy V1.0 beta 3 from 29. August 2011

EAC extraction logfile from 5. November 2011, 11:55

Alan Skidmore, Mike Osborne, John Surman / SOS

Used drive : JLMS XJ-HD166S Adapter: 1 ID: 0

Read mode : Secure
Utilize accurate stream : Yes
Defeat audio cache : Yes
Make use of C2 pointers : Yes

Read offset correction : 12
Overread into Lead-In and Lead-Out : No
Fill up missing offset samples with silence : Yes
Delete leading and trailing silent blocks : No
Null samples used in CRC calculations : Yes
Used interface : Installed external ASPI interface
Gap handling : Appended to previous track

Used output format : User Defined Encoder
Selected bitrate : 768 kBit/s
Quality : High
Add ID3 tag : No
Command line compressor : C:\NoUAC\Exact Audio Copy\FLAC\FLAC.EXE
Additional command line options : -6 -V -T "ARTIST=%artist%" -T "TITLE=%title%" -T "ALBUM=%albumtitle%"
-T "DATE=%year%" -T "TRACKNUMBER=%tracknr%" -T "GENRE=%genre%"
-T "COMMENT=EAC1.0b3 Secure Mode, Test & Copy, AccurateRip, FLAC 1.2.1 -6 (by Paky)"

TOC of the extracted CD

Track | Start | Length | Start sector | End sector
---------------------------------------------------------
1 | 0:00.00 | 3:57.67 | 0 | 17841
2 | 3:57.67 | 7:55.25 | 17842 | 53491
3 | 11:53.17 | 4:05.62 | 53492 | 71928
4 | 15:59.04 | 3:30.62 | 71929 | 87740
5 | 19:29.66 | 3:38.54 | 87741 | 104144
6 | 23:08.45 | 5:26.00 | 104145 | 128594
7 | 28:34.45 | 4:31.41 | 128595 | 148960
8 | 33:06.11 | 10:46.29 | 148961 | 197439


Track 1

Filename D:\Alan Skidmore, Mike Osborne, John Surman (1975) - SOS\01 - Country Dance.wav

Pre-gap length 0:00:02.00

Peak level 94.9 %
Extraction speed 3.8 X
Track quality 100.0 %
Test CRC 5131E6D2
Copy CRC 5131E6D2
Track not present in AccurateRip database
Copy OK

Track 2

Filename D:\Alan Skidmore, Mike Osborne, John Surman (1975) - SOS\02 - Wherever I Am.wav

Pre-gap length 0:00:00.01

Peak level 98.8 %
Extraction speed 4.9 X
Track quality 100.0 %
Test CRC 23EC089D
Copy CRC 23EC089D
Track not present in AccurateRip database
Copy OK

Track 3

Filename D:\Alan Skidmore, Mike Osborne, John Surman (1975) - SOS\03 - Chordary.wav

Pre-gap length 0:00:00.01

Peak level 81.5 %
Extraction speed 5.0 X
Track quality 100.0 %
Test CRC 2E09E5FC
Copy CRC 2E09E5FC
Track not present in AccurateRip database
Copy OK

Track 4

Filename D:\Alan Skidmore, Mike Osborne, John Surman (1975) - SOS\04 - Where's Junior.wav

Pre-gap length 0:00:00.01

Peak level 95.3 %
Extraction speed 5.2 X
Track quality 100.0 %
Test CRC D378A3FC
Copy CRC D378A3FC
Track not present in AccurateRip database
Copy OK

Track 5

Filename D:\Alan Skidmore, Mike Osborne, John Surman (1975) - SOS\05 - Cycle Motion.wav

Pre-gap length 0:00:00.01

Peak level 93.0 %
Extraction speed 5.5 X
Track quality 100.0 %
Test CRC 85A63C64
Copy CRC 85A63C64
Track not present in AccurateRip database
Copy OK

Track 6

Filename D:\Alan Skidmore, Mike Osborne, John Surman (1975) - SOS\06 - Ist.wav

Pre-gap length 0:00:04.01

Peak level 98.8 %
Extraction speed 5.0 X
Track quality 99.9 %
Test CRC 5ADD07F5
Copy CRC 5ADD07F5
Track not present in AccurateRip database
Copy OK

Track 7

Filename D:\Alan Skidmore, Mike Osborne, John Surman (1975) - SOS\07 - Goliath.wav

Pre-gap length 0:00:00.01

Peak level 98.8 %
Extraction speed 6.5 X
Track quality 100.0 %
Test CRC 0581A622
Copy CRC 0581A622
Track not present in AccurateRip database
Copy OK

Track 8

Filename D:\Alan Skidmore, Mike Osborne, John Surman (1975) - SOS\08 - Calypso.wav

Pre-gap length 0:00:00.01

Peak level 78.4 %
Extraction speed 7.7 X
Track quality 100.0 %
Test CRC 652E77D2
Copy CRC 652E77D2
Track not present in AccurateRip database
Copy OK


None of the tracks are present in the AccurateRip database

No errors occurred

End of status report

==== Log checksum E6CCC2FE3230EC5B0E9101B43754BA2F7276DC3D8379D15AE033663388D54786 ====[/quote]
Alan Skidmore, Mike Osborne, John Surman (1975) - SOS/01 - Country Dance.flac 23.667 MB
Alan Skidmore, Mike Osborne, John Surman (1975) - SOS/02 - Wherever I Am.flac 55.813 MB
Alan Skidmore, Mike Osborne, John Surman (1975) - SOS/03 - Chordary.flac 24.08 MB
Gathering some info...

Register and log in Isohunt and see no captcha anymore!

4000 symbols left
Hash 636852dedc0f1fc617698d8157deb843e349db32