imdb
rating

5.8
Paranormal Activity 3

Paranormal Activity 3 (2011)

Horror

Full description

Paranormal Activity 3 2011 TS XviD - VISUALiSE

Size 747.992 MB   0 seeders     Added 2011-11-09 04:09:22

Stream torrent
Starting‥ You need BitLord! Get it from BitLord.com
To download or stream you need BitLord. Visit them at BitLord.com
Paranormal Activity 3 2011 TS XviD - VISUALiSE\r\nDescription	\r\n\r\nTitle: Paranormal Activity 3 2011 TS XviD - VISUALiSE\r\nFormat: Xvid\r\nLanguage: English\r\nSubtitles: No\r\nSample: Yes\r\nImdb: http://www.imdb.com/title/tt1778304/\r\n\r\nPlot:\r\nIn 1988, young sisters Katie and Kristi befriend an \r\ninvisible entity who resides in their home. \r\n\r\n\r\nSources:\r\nVideo - Relizlab Files - As Always Many Thanks   \r\nAudio - MiSTERE - You Know Already Big Thanks  \r\n\r\n\r\nRelease Notes: \r\nOk Here we are bringing you all another release and this time its,\r\nParanormal Activity 3 2011 TS XviD - VISUALiSE\r\nFirst of all we ripped the source files (Big Thanks to the guys at Relizlab) \r\nWe did our usually on that Crop, sharpen, play with contrast and RGB Levals\r\nand alter'd the Sats  \r\nafter that we took the very nice line audio from our good friends MiSTERE\r\nand filter'd before mux'in back to our own encode  \r\nSo there you have it a nice TS with very nice LiNE audio for every 1 to \r\n\r\nEnjoy \r\n\r\niNFO:\r\n\r\nVideo\r\nFormat                           : wmv\r\nFormat/Info                      : Windows Media Video\r\nFile size                        : 684MB\r\nDuration                         : 1h 18mn\r\nOverall bit rate                 : 1 960 Kbps\r\n\r\nID                               : 0\r\nFormat                           : MPEG-4 Visual\r\nFormat profile                   : Advanced Simple@L5\r\nFormat settings, BVOP            : 2\r\nFormat settings, QPel            : No\r\nFormat settings, GMC             : No warppoints\r\nFormat settings, Matrix          : Default (H.263)\r\nCodec ID                         : XVID\r\nCodec ID/Hint                    : XviD\r\nDuration                         : 1h 18mn\r\nBit rate                         : 1 822 Kbps\r\nWidth                            : 720 pixels\r\nHeight                           : 384 pixels\r\nDisplay aspect ratio             : 1.875\r\nFrame rate                       : 25.000 fps\r\nColor space                      : YUV\r\nChroma subsampling               : 4:2:0\r\nBit depth                        : 8 bits\r\nScan type                        : Progressive\r\nCompression mode                 : Lossy\r\nBits/(Pixel*Frame)               : 0.264\r\nStream size                      : 1 024 MiB (93%)\r\n\r\nAudio:\r\nID                               : 1\r\nFormat                           : MPEG Audio\r\nFormat version                   : Version 1\r\nFormat profile                   : Layer 3\r\nMode                             : Joint stereo\r\nMode extension                   : MS Stereo\r\nCodec ID                         : 55\r\nCodec ID/Hint                    : MP3\r\nDuration                         : 1h 18mn\r\nBit rate mode                    : Constant\r\nBit rate                         : 128 Kbps\r\nChannel(s)                       : 2 channels\r\nSampling rate                    : 44.1 KHz\r\nCompression mode                 : Lossy\r\nStream size                      : 71.9 MiB (7%)\r\nAlignment                        : Aligned on interleaves\r\nInterleave, duration             : 40 ms (1.00 video frame)\r\nWriting library                  : LAME3.98r\r\nEncoding settings                : -m j -V 4 -q 2 -lowpass 17 -b 128\r\n[/code]\r\nScreens:\r\n[img]image[/img]\r\n[img]image[/img]\r\n[img]image[/img]\r\n[img]image[/img]
att-networks.com.txt 39 B
HDSceneRG.txt 115 B
Paranormal Activity 2 (2010) UNRATED DVDRip XviD-Larceny.wmv 717.21 MB
Gathering some info...

Register and log in Isohunt and see no captcha anymore!

4000 symbols left
Hash 1EE4AE0F8288D484FAAE13F8E79E34CE04D36DD1

Related torrents for "Paranormal Activity 3 2011 TS XviD - VISUALiSE"

Torrent search:

telesync 2011