11 11 11 2011 SCREENER Xvid UnKnOwN

Size 992.255 MB   0 seeders     Added 2011-11-10 04:20:02

Stream torrent
Startingā€„ You need BitLord! Get it from 1BitLord.com
To download or stream you need BitLord. Visit them at BitLord.com
Looking for fast download speeds come join http://dream-torrents.com for all the latest releases, with friendly staff online radio and games and much much more.\r\n-\r\n-\r\n.\r\nEncoded By .......:UnKnOwN\r\nRuntime ..........:1:28\r\nIMDb URL .........: http://www.imdb.com/title/tt1712159/\r\nLanguage .........:English\r\nFile Size ........:890mb\r\nRelease Date ......... 2011\r\nSource ......... A thousand thank yous madam(:\r\nFile Type ......... Single AVI\r\nPS3 Compatible ....... Go For It\r\nGenre ......... Horror/Thriller\r\nVideo\r\nID : 0\r\nFormat : MPEG-4 Visual\r\nFormat profile : Advanced Simple@L5\r\nFormat settings, BVOP : Yes\r\nFormat settings, QPel : No\r\nFormat settings, GMC : No warppoints\r\nFormat settings, Matrix : Custom\r\nCodec ID : XVID\r\nCodec ID/Hint : XviD\r\nDuration : 1h 28mn\r\nBit rate : 1381Kbps\r\nWidth : 720ixels\r\nHeight : 304pixels\r\nDisplay aspect ratio : 2:35\r\nFrame rate : 23.997fps\r\nColor space : YUV\r\nChroma subsampling : 4:2:0\r\nBit depth : 8 bits\r\nScan type : Progressive\r\nBits/(Pixel*Frame) : 0.234\r\nStream size : 892 MiB (86%)\r\nWriting library : XviD 1.2.1 (UTC 2008-12-04)\r\nAudio\r\nID : 1\r\nFormat : AC3\r\nFormat/Info : AUDIO CODING 3\r\nMode extension : CM (complete main)\r\nCodec ID : 2000\r\nDuration : 1h 28mn\r\nBit rate mode : Constant\r\nBit rate : 448kbps\r\nChannel(s) : 6channels\r\nChannel positions : Front: L C R, Side: L R, LFE\r\nSampling rate : 48.0 KHz\r\nBit depth : 16 bits\r\nStream size : 302 MiB\r\nAlignment : Aligned on interleaves\r\nInterleave, duration : 42 ms (1.00 video frame)\r\nInterleave, preload duration : 512 ms\r\n\r\nRelease Notes\r\nHad to cut about 15 second of footage due to w/m about 25 minutes in other then that excellent quality screener imo,also note this is not the cheap ASYLUM knock off 11/11/11 this is the one that opens in theaters next week sample included good movie.\r\n\r\n\r\nAfter his death of his wife and child, an author travels to Barcelona to see his estranged brother and dying father, where he learns that his life is plagued by events that occur on 11/11/11.\r\n\r\n\r\n \r\n This image has been resized. Click the image to view the full image. The original image is sized: 720 x 304\r\n\r\n\r\n \r\n This image has been resized. Click the image to view the full image. The original image is sized: 720 x 304\r\n\r\n\r\n \r\n This image has been resized. Click the image to view the full image. The original image is sized: 720 x 304\r\n\r\n\r\n \r\n This image has been resized. Click the image to view the full image. The original image is sized: 720 x 304\r\n\r\n\r\n \r\n This image has been resized. Click the image to view the full image. The original image is sized: 720 x 304\r\n\r\n\r\n \r\n This image has been resized. Click the image to view the full image. The original image is sized: 720 x 304
11UnKnowN.avi 978.415 MB
custom cover.jpg 217.81 KB
sample.avi 13.612 MB
Gathering some info...

Register and log in Isohunt and see no captcha anymore!

4000 symbols left
Hash E3B5900145DB9FD4B0F98FD154A11ED9EF2FFF3E