imdb
rating

7.4
The Adventures of Tintin

The Adventures of Tintin (2011)

Action, Adventure, Animation, Mystery, Family

Full description
quality   hd cam dvd

The Adventures of Tintin 2011 CaM XviD ILLUMINATI

Size 1.548 GB   0 seeders     Added 2011-11-11 04:03:26

Stream torrent
Starting‥ You need BitLord! Get it from 1BitLord.com
To download or stream you need BitLord. Visit them at BitLord.com
Looking for fast download speeds come join http://dream-torrents.com for all the latest releases, with friendly staff online radio and games and much much more.\r\n-\r\n-\r\n.\r\nIMDB: http://www.imdb.com/title/tt0983193/\r\nSources:\r\nVideo - TNZ (720p Files) - Thanks Guys\r\nAudio - ILLUMINATI - Thanks Bro\r\nInfo:\r\nVideo\r\nID : 0\r\nFormat : MPEG-4 Visual\r\nFormat profile : Advanced Simple@L5\r\nFormat settings, BVOP : 2\r\nFormat settings, QPel : No\r\nFormat settings, GMC : No warppoints\r\nFormat settings, Matrix : Default (H.263)\r\nCodec ID : XVID\r\nCodec ID/Hint : XviD\r\nDuration : 1h 39mn\r\nBit rate : 1 892 Kbps\r\nWidth : 720 pixels\r\nHeight : 304 pixels\r\nDisplay aspect ratio : 2.35:1\r\nFrame rate : 25.000 fps\r\nColor space : YUV\r\nChroma subsampling : 4:2:0\r\nBit depth : 8 bits\r\nScan type : Progressive\r\nCompression mode : Lossy\r\nBits/(Pixel*Frame) : 0.346\r\nStream size : 1.32 GiB (93%)\r\nAudio\r\nID : 1\r\nFormat : MPEG Audio\r\nFormat version : Version 1\r\nFormat profile : Layer 3\r\nMode : Joint stereo\r\nMode extension : MS Stereo\r\nCodec ID : 55\r\nCodec ID/Hint : MP3\r\nDuration : 1h 39mn\r\nBit rate mode : Constant\r\nBit rate : 128 Kbps\r\nChannel(s) : 2 channels\r\nSampling rate : 44.1 KHz\r\nCompression mode : Lossy\r\nStream size : 91.2 MiB (6%)\r\nAlignment : Aligned on interleaves\r\nInterleave, duration : 40 ms (1.00 video frame)\r\nWriting library : LAME3.98r\r\nEncoding settings : -m j -V 4 -q 2 -lowpass 17 -b 128\r\n\r\nRelease Notes\r\nThe Adventures of Tintin 2011 CaM XviD - ILLUMINATI So here we have it our release of Tin TIn. Video is from the 720p files courtesy of TNZ so once again guys a big thanks on another wonderful source top work guys Audio is from \"case\" cheers bro for going the xtra mile for the team and grabbing this nice cam audio or us to use on this release Done our normal thing in regards to running filters tweaking RGB and adjusting a few other things\r\n\r\n\r\nTintin and Captain Haddock set off on a treasure hunt for a sunken ship commanded by Haddock's ancestor. But someone else is in search of the ship.\r\n\r\n\r\n\r\n  This image has been resized. Click the image to view the full image. The original image is sized: 720 x 304 \r\n\r\n  This image has been resized. Click the image to view the full image. The original image is sized: 720 x 304 \r\n\r\n  This image has been resized. Click the image to view the full image. The original image is sized: 720 x 304 \r\n\r\n  This image has been resized. Click the image to view the full image. The original image is sized: 720 x 304 \r\n\r\n  This image has been resized. Click the image to view the full image. The original image is sized: 720 x 304
The Adventures of Tintin 2011 CaM Sample - ILLUMINATI.avi 31.379 MB
The Adventures of Tintin 2011 CaM XviD - ILLUMINATI.avi 1.516 GB
The Adventures of Tintin 2011 CaM XviD - ILLUMINATI.nfo 3.112 KB
Gathering some info...

Register and log in Isohunt and see no captcha anymore!

4000 symbols left
Hash B8EB7CAE35EA705F74B5785E7E886B7888901348

Related torrents for "The Adventures of Tintin 2011 CaM XviD ILLUMINATI"

Torrent search:

cam 2011