imdb
rating

5.2
Apollo 18

Apollo 18 (2011)

Horror, Science Fiction, Thriller

Full description
quality   screener hd h264 telesync dvd

Apollo 18 2011 DvDRiP XviD-TASTE[EXtraT0rrent]

Size 910.364 MB   0 seeders     Added 2011-11-12 19:49:35

Stream torrent
Starting‥ You need BitLord! Get it from BitLord.com
To download or stream you need BitLord. Visit them at BitLord.com
http://www.scenetime.com    -   SceneTime [ We been having it ] !!!


How come you press harder on a remote control when you know the battery is dead? so you better seed to get speed ;)

        Seed back for speed


...................................NFO:.................................................General
  
Format                           : AVI
Format/Info                      : Audio Video Interleave
Duration                         : 1h 51mn
Overall bit rate                 : 866 Kbps

Video
ID                               : 0
Format                           : MPEG-4 Visual
Format profile                   : Advanced Simple@L5
Format settings, BVOP            : 2
Format settings, QPel            : No
Format settings, GMC             : No warppoints
Format settings, Matrix          : Default (H.263)
Codec ID                         : XVID
Codec ID/Hint                    : XviD
Duration                         : 1h 51mn
Bit rate                         : 730 Kbps
Width                            : 720 pixels
Height                           : 304 pixels
Display aspect ratio             : 2.35:1
Frame rate                       : 29.970 fps
Color space                      : YUV
Chroma subsampling               : 4:2:0
Bit depth                        : 8 bits
Scan type                        : Progressive
Compression mode                 : Lossy
Bits/(Pixel*Frame)               : 0.111
Stream size                      : 585 MiB (84%)


Audio
ID                               : 1
Format                           : MPEG Audio
Format version                   : Version 1
Format profile                   : Layer 3
Mode                             : Joint stereo
Mode extension                   : MS Stereo
Codec ID                         : 55
Codec ID/Hint                    : MP3
Duration                         : 1h 51mn
Bit rate mode                    : Constant
Bit rate                         : 128 Kbps
Channel(s)                       : 2 channels
Sampling rate                    : 48.0 KHz
Compression mode                 : Lossy
Stream size                      : 102 MiB (15%)
Alignment                        : Aligned on interleaves
Interleave, duration             : 133 ms (4.00 video frames)
Interleave, preload duration     : 216 ms		
Apollo 18 2011 DvDRiP XviD-TASTE[EXtraT0rrent]/Apollo 18 2011 DvDRiP XviD-TASTE[EXtraT0rrent].avi 910.364 MB
Gathering some info...

Register and log in Isohunt and see no captcha anymore!

4000 symbols left
Hash 110b44d63333ed5d8bc502e9aba884ba04e08fb0

Related torrents for "Apollo 18 2011 DvDRiP XviD-TASTE[EXtraT0rrent]"

Torrent search:

dvdrip 2011