Omar Rodriguez Lopez - Calibration [Eac Mpc Cue-TNTVillage]

Size 85.419 MB   0 seeders     Added 2011-11-13 20:33:02

Stream torrent
Starting‥ You need BitLord! Get it from BitLord.com
To download or stream you need BitLord. Visit them at BitLord.com
.: Original Release:.
http://www.tntvillage.scambioetico.org/?act=showrelease&id=268330

[::Cover::]

[img]image[/img]

Artist: Omar Rodriguez Lopez
Title: Calibration
Genre: Rock
Year: 2007

[ :: Tracklist :: ]
01. Mexico
02. El Monte T'Ai
03. Una Ced Lacerante
04. Calibration
05. Grey (Cancion Para El)
06. Glosa Picaresca Wou Men
07. Sidewalk Fins
08. Lick The Til Ting Poppies
09. Cortar El Cuello
10. ...Is Pushing Luck
11. Las Lagrimas De Arakuine

[ :: Technical Data :: ]
Encoder: EAC 1.02 b3 (Secure Mode,Test & Copy)
Codec: Musepack 1.16
Profile: Extreme

EAC LOG:
[quote]
Exact Audio Copy V1.0 beta 3 from 29. August 2011

EAC extraction logfile from 16. October 2011, 14:35

Omar Rodriguez Lopez / Calibration

Used drive : JLMS XJ-HD166S Adapter: 1 ID: 0

Read mode : Secure
Utilize accurate stream : Yes
Defeat audio cache : Yes
Make use of C2 pointers : Yes

Read offset correction : 12
Overread into Lead-In and Lead-Out : No
Fill up missing offset samples with silence : Yes
Delete leading and trailing silent blocks : No
Null samples used in CRC calculations : Yes
Used interface : Installed external ASPI interface
Gap handling : Appended to previous track

Used output format : User Defined Encoder
Selected bitrate : 192 kBit/s
Quality : High
Add ID3 tag : No
Command line compressor : C:\NoUAC\Exact Audio Copy\codec\mppenc.exe
Additional command line options : --extreme --ape2 --artist "%artist%" --title "%title%"
--album "%albumtitle%" --year "%year%" --track "%tracknr%" --genre "%genre%"
--comment "EAC1.0b3 Secure Mode, Test & Copy, AccurateRip, Q6 (by Paky)" %source%


TOC of the extracted CD

Track | Start | Length | Start sector | End sector
---------------------------------------------------------
1 | 0:00.00 | 3:00.09 | 0 | 13508
2 | 3:00.09 | 2:33.60 | 13509 | 25043
3 | 5:33.69 | 2:47.55 | 25044 | 37623
4 | 8:21.49 | 3:36.07 | 37624 | 53830
5 | 11:57.56 | 3:29.19 | 53831 | 69524
6 | 15:27.00 | 3:27.02 | 69525 | 85051
7 | 18:54.02 | 6:32.23 | 85052 | 114474
8 | 25:26.25 | 5:17.08 | 114475 | 138257
9 | 30:43.33 | 3:24.02 | 138258 | 153559
10 | 34:07.35 | 8:11.50 | 153560 | 190434
11 | 42:19.10 | 11:11.60 | 190435 | 240819


Track 1

Filename D:\Omar Rodriguez Lopez (2008) - Calibration\01 - Mexico.wav

Pre-gap length 0:00:02.00

Peak level 97.7 %
Extraction speed 3.5 X
Track quality 100.0 %
Test CRC 9B471EE1
Copy CRC 9B471EE1
Accurately ripped (confidence 13) [A4097596] (AR v1)
Copy OK

Track 2

Filename D:\Omar Rodriguez Lopez (2008) - Calibration\02 - El Monte T'Aï.wav

Pre-gap length 0:00:00.01

Peak level 97.7 %
Extraction speed 3.6 X
Track quality 100.0 %
Test CRC 4B16F6BD
Copy CRC 4B16F6BD
Accurately ripped (confidence 13) [57B09493] (AR v1)
Copy OK

Track 3

Filename D:\Omar Rodriguez Lopez (2008) - Calibration\03 - Una Ced Lacerante.wav

Pre-gap length 0:00:00.01

Peak level 97.7 %
Extraction speed 3.9 X
Track quality 100.0 %
Test CRC E243DC8C
Copy CRC E243DC8C
Accurately ripped (confidence 13) [7A34B7E4] (AR v1)
Copy OK

Track 4

Filename D:\Omar Rodriguez Lopez (2008) - Calibration\04 - Calibration.wav

Pre-gap length 0:00:00.01

Peak level 97.7 %
Extraction speed 4.4 X
Track quality 100.0 %
Test CRC 7CC8D42B
Copy CRC 7CC8D42B
Accurately ripped (confidence 13) [4E6F38D6] (AR v1)
Copy OK

Track 5

Filename D:\Omar Rodriguez Lopez (2008) - Calibration\05 - Grey (Cancion Para El).wav

Pre-gap length 0:00:00.01

Peak level 97.7 %
Extraction speed 4.8 X
Track quality 100.0 %
Test CRC FE2E343E
Copy CRC FE2E343E
Accurately ripped (confidence 13) [F995CB8D] (AR v1)
Copy OK

Track 6

Filename D:\Omar Rodriguez Lopez (2008) - Calibration\06 - Glosa Picaresca Wou Mên.wav

Pre-gap length 0:00:00.01

Peak level 97.7 %
Extraction speed 5.0 X
Track quality 100.0 %
Test CRC 567A65A3
Copy CRC 567A65A3
Accurately ripped (confidence 13) [FC9DDF22] (AR v1)
Copy OK

Track 7

Filename D:\Omar Rodriguez Lopez (2008) - Calibration\07 - Sidewalk Fins.wav

Pre-gap length 0:00:00.01

Peak level 97.7 %
Extraction speed 5.9 X
Track quality 100.0 %
Test CRC 78307A25
Copy CRC 78307A25
Accurately ripped (confidence 13) [14CDE4B5] (AR v1)
Copy OK

Track 8

Filename D:\Omar Rodriguez Lopez (2008) - Calibration\08 - Lick The Tilting Poppies.wav

Pre-gap length 0:00:00.01

Peak level 97.7 %
Extraction speed 6.2 X
Track quality 100.0 %
Test CRC 625F4195
Copy CRC 625F4195
Accurately ripped (confidence 12) [8B2894AF] (AR v1)
Copy OK

Track 9

Filename D:\Omar Rodriguez Lopez (2008) - Calibration\09 - Cortar El Cuello.wav

Pre-gap length 0:00:00.01

Peak level 98.3 %
Extraction speed 6.1 X
Track quality 100.0 %
Test CRC F9340C09
Copy CRC F9340C09
Accurately ripped (confidence 13) [38FFFB66] (AR v1)
Copy OK

Track 10

Filename D:\Omar Rodriguez Lopez (2008) - Calibration\10 - ...Is Pushing Luck.wav

Pre-gap length 0:00:00.01

Peak level 97.7 %
Extraction speed 6.2 X
Track quality 99.9 %
Test CRC BFF516BA
Copy CRC BFF516BA
Accurately ripped (confidence 13) [5F706CF6] (AR v1)
Copy OK

Track 11

Filename D:\Omar Rodriguez Lopez (2008) - Calibration\11 - Las Lagrimas de Arakuine.wav

Pre-gap length 0:00:00.01

Peak level 97.7 %
Extraction speed 8.2 X
Track quality 100.0 %
Test CRC 166721D6
Copy CRC 166721D6
Accurately ripped (confidence 13) [BDDA100A] (AR v1)
Copy OK


All tracks accurately ripped

No errors occurred

End of status report

==== Log checksum 96A7CB71DA3477EB6E9C09E996C0F3F1D1034635B2B1F794D47AA308B77851F5 ====	
[/quote]
Omar Rodriguez Lopez (2008) - Calibration/01 - Mexico.mpc 4.85 MB
Omar Rodriguez Lopez (2008) - Calibration/02 - El Monte T'Aï.mpc 4.043 MB
Omar Rodriguez Lopez (2008) - Calibration/03 - Una Ced Lacerante.mpc 3.779 MB
Gathering some info...

Register and log in Isohunt and see no captcha anymore!

4000 symbols left
Hash 1b5d568dc974cd29f847169245e63a4b9f6fea73