Snow Patrol - Fallen Empires (2011) FLAC [CUE LOG]

Size 373.826 MB   0 seeders     Added 2011-11-14 04:00:08

Stream torrent
Starting‥ You need BitLord! Get it from BitLord.com
To download or stream you need BitLord. Visit them at BitLord.com
01. I'll Never Let Go (4:43)
02. Called Out In the Dark (4:02)
03. The Weight of Love (4:16)
04. This Isn't Everything You Are (4:58)
05. The Garden Rules (4:28)
06. Fallen Empires (5:20)
07. Berlin (2:04)
08. Lifening (3:53)
09. New York (4:02)
10. In the End (4:00)
11. Those Distant Bells (3:18)
12. The Symphony (6:06)
13. The President (4:35)
14. Broken Bottles Form A Star (Prelude) (1:32)
SOURCE: WHAT.CD
LOG:
X Lossless Decoder version 20111015 (136.4)
XLD extraction logfile from 2011-11-11 15:54:49 +0000
Snow Patrol / Fallen Empires
Used drive : YAMAHA CRW-F1E (revision 1.0g)
Ripper mode : XLD Secure Ripper
Disable audio cache : OK for the drive with a cache less than 1375KiB
Make use of C2 pointers : NO
Read offset correction : 733
Max retry count : 100
Gap status : Analyzed, Appended
TOC of the extracted CD
 Track | Start | Length | Start sector | End sector 
 ---------------------------------------------------------
 1 | 00:00:00 | 04:42:49 | 0 | 21198 
 2 | 04:42:49 | 04:01:69 | 21199 | 39342 
 3 | 08:44:43 | 04:15:54 | 39343 | 58521 
 4 | 13:00:22 | 04:58:33 | 58522 | 80904 
 5 | 17:58:55 | 04:28:18 | 80905 | 101022 
 6 | 22:26:73 | 05:19:38 | 101023 | 124985 
 7 | 27:46:36 | 02:03:46 | 124986 | 134256 
 8 | 29:50:07 | 03:53:06 | 134257 | 151737 
 9 | 33:43:13 | 04:01:63 | 151738 | 169875 
 10 | 37:45:01 | 03:59:47 | 169876 | 187847 
 11 | 41:44:48 | 03:18:31 | 187848 | 202728 
 12 | 45:03:04 | 06:06:34 | 202729 | 230212 
 13 | 51:09:38 | 04:34:69 | 230213 | 250831 
 14 | 55:44:32 | 01:31:65 | 250832 | 257721 
AccurateRip Summary
 Disc not found in AccurateRip DB.
All Tracks
 Album gain : -9.32 dB
 Peak : 0.999084
 Statistics
 Read error : 0
 Jitter error (maybe fixed) : 0
 Retry sector count : 0
 Damaged sector count : 0
Track 01
 Filename : /Volumes/HD 2/Snow Patrol - 2011 - Fallen Empires/01 - Snow Patrol - 2011 - I'll Never Let Go.flac
 Pre-gap length : 00:02:00
 Track gain : -8.87 dB
 Peak : 0.942810
 CRC32 hash (test run) : 89CB8429
 CRC32 hash : 89CB8429
 CRC32 hash (skip zero) : 8B43381F
 AccurateRip signature : A3F1C46B
 ->Track not present in AccurateRip database.
 Statistics
 Read error : 0
 Jitter error (maybe fixed) : 0
 Retry sector count : 0
 Damaged sector count : 0
Track 02
 Filename : /Volumes/HD 2/Snow Patrol - 2011 - Fallen Empires/02 - Snow Patrol - 2011 - Called Out In The Dark.flac
 Track gain : -9.88 dB
 Peak : 0.956177
 CRC32 hash (test run) : A8853E27
 CRC32 hash : A8853E27
 CRC32 hash (skip zero) : 7302F15C
 AccurateRip signature : E346CA7B
 ->Track not present in AccurateRip database.
 Statistics
 Read error : 0
 Jitter error (maybe fixed) : 0
 Retry sector count : 0
 Damaged sector count : 0
Track 03
 Filename : /Volumes/HD 2/Snow Patrol - 2011 - Fallen Empires/03 - Snow Patrol - 2011 - The Weight Of Love.flac
 Track gain : -10.72 dB
 Peak : 0.996796
 CRC32 hash (test run) : EF330476
 CRC32 hash : EF330476
 CRC32 hash (skip zero) : 4AA1FA4D
 AccurateRip signature : E6547D9F
 ->Track not present in AccurateRip database.
 Statistics
 Read error : 0
 Jitter error (maybe fixed) : 0
 Retry sector count : 0
 Damaged sector count : 0
Track 04
 Filename : /Volumes/HD 2/Snow Patrol - 2011 - Fallen Empires/04 - Snow Patrol - 2011 - This Isn't Everything You Are.flac
 Track gain : -9.65 dB
 Peak : 0.963989
 CRC32 hash (test run) : 4ADABBD7
 CRC32 hash : 4ADABBD7
 CRC32 hash (skip zero) : 03958C03
 AccurateRip signature : 1A3B8BA4
 ->Track not present in AccurateRip database.
 Statistics
 Read error : 0
 Jitter error (maybe fixed) : 0
 Retry sector count : 0
 Damaged sector count : 0
Track 05
 Filename : /Volumes/HD 2/Snow Patrol - 2011 - Fallen Empires/05 - Snow Patrol - 2011 - The Garden Rules.flac
 Track gain : -7.75 dB
 Peak : 0.985687
 CRC32 hash (test run) : 9F842DE3
 CRC32 hash : 9F842DE3
 CRC32 hash (skip zero) : D68CDB1D
 AccurateRip signature : A7B394E2
 ->Track not present in AccurateRip database.
 Statistics
 Read error : 0
 Jitter error (maybe fixed) : 0
 Retry sector count : 0
 Damaged sector count : 0
Track 06
 Filename : /Volumes/HD 2/Snow Patrol - 2011 - Fallen Empires/06 - Snow Patrol - 2011 - Fallen Empires.flac
 Track gain : -8.89 dB
 Peak : 0.942505
 CRC32 hash (test run) : CD8BFAE4
 CRC32 hash : CD8BFAE4
 CRC32 hash (skip zero) : A6ABC184
 AccurateRip signature : 0C5E42B5
 ->Track not present in AccurateRip database.
 Statistics
 Read error : 0
 Jitter error (maybe fixed) : 0
 Retry sector count : 0
 Damaged sector count : 0
Track 07
 Filename : /Volumes/HD 2/Snow Patrol - 2011 - Fallen Empires/07 - Snow Patrol - 2011 - Berlin.flac
 Track gain : -7.75 dB
 Peak : 0.999084
 CRC32 hash (test run) : C479E62F
 CRC32 hash : C479E62F
 CRC32 hash (skip zero) : DDC0229A
 AccurateRip signature : F09DA558
 ->Track not present in AccurateRip database.
 Statistics
 Read error : 0
 Jitter error (maybe fixed) : 0
 Retry sector count : 0
 Damaged sector count : 0
Track 08
 Filename : /Volumes/HD 2/Snow Patrol - 2011 - Fallen Empires/08 - Snow Patrol - 2011 - Lifening.flac
 Track gain : -7.17 dB
 Peak : 0.967346
 CRC32 hash (test run) : EA732053
 CRC32 hash : EA732053
 CRC32 hash (skip zero) : 0A121414
 AccurateRip signature : 572719D6
 ->Track not present in AccurateRip database.
 Statistics
 Read error : 0
 Jitter error (maybe fixed) : 0
 Retry sector count : 0
 Damaged sector count : 0
Track 09
 Filename : /Volumes/HD 2/Snow Patrol - 2011 - Fallen Empires/09 - Snow Patrol - 2011 - New York.flac
 Track gain : -9.54 dB
 Peak : 0.970184
 CRC32 hash (test run) : DA0C678C
 CRC32 hash : DA0C678C
 CRC32 hash (skip zero) : 2DF30179
 AccurateRip signature : 5C242938
 ->Track not present in AccurateRip database.
 Statistics
 Read error : 0
 Jitter error (maybe fixed) : 0
 Retry sector count : 0
 Damaged sector count : 0
Track 10
 Filename : /Volumes/HD 2/Snow Patrol - 2011 - Fallen Empires/10 - Snow Patrol - 2011 - In The End.flac
 Track gain : -9.78 dB
 Peak : 0.964233
 CRC32 hash (test run) : 5337F599
 CRC32 hash : 5337F599
 CRC32 hash (skip zero) : E2FADB12
 AccurateRip signature : 493157AC
 ->Track not present in AccurateRip database.
 Statistics
 Read error : 0
 Jitter error (maybe fixed) : 0
 Retry sector count : 0
 Damaged sector count : 0
Track 11
 Filename : /Volumes/HD 2/Snow Patrol - 2011 - Fallen Empires/11 - Snow Patrol - 2011 - Those Distant Bells.flac
 Track gain : -5.88 dB
 Peak : 0.976929
 CRC32 hash (test run) : 2079A456
 CRC32 hash : 2079A456
 CRC32 hash (skip zero) : 41601CB6
 AccurateRip signature : 494F0285
 ->Track not present in AccurateRip database.
 Statistics
 Read error : 0
 Jitter error (maybe fixed) : 0
 Retry sector count : 0
 Damaged sector count : 0
Track 12
 Filename : /Volumes/HD 2/Snow Patrol - 2011 - Fallen Empires/12 - Snow Patrol - 2011 - The Symphony.flac
 Track gain : -9.21 dB
 Peak : 0.960480
 CRC32 hash (test run) : 34875117
 CRC32 hash : 34875117
 CRC32 hash (skip zero) : FC1E93F5
 AccurateRip signature : 067F9757
 ->Track not present in AccurateRip database.
 Statistics
 Read error : 0
 Jitter error (maybe fixed) : 0
 Retry sector count : 0
 Damaged sector count : 0
Track 13
 Filename : /Volumes/HD 2/Snow Patrol - 2011 - Fallen Empires/13 - Snow Patrol - 2011 - The President.flac
 Track gain : -7.63 dB
 Peak : 0.944702
 CRC32 hash (test run) : 2AA908CE
 CRC32 hash : 2AA908CE
 CRC32 hash (skip zero) : 378A4842
 AccurateRip signature : 5B4466D6
 ->Track not present in AccurateRip database.
 Statistics
 Read error : 0
 Jitter error (maybe fixed) : 0
 Retry sector count : 0
 Damaged sector count : 0
Track 14
 Filename : /Volumes/HD 2/Snow Patrol - 2011 - Fallen Empires/14 - Snow Patrol - 2011 - Broken Bottles Form A Star (Prelude).flac
 Track gain : -2.95 dB
 Peak : 0.681946
 CRC32 hash (test run) : 7B673729
 CRC32 hash : 7B673729
 CRC32 hash (skip zero) : 7BC90517
 AccurateRip signature : 41A9D914
 ->Track not present in AccurateRip database.
 Statistics
 Read error : 0
 Jitter error (maybe fixed) : 0
 Retry sector count : 0
 Damaged sector count : 0
No errors occurred
End of status report 
01 - Snow Patrol - 2011 - I'll Never Let Go.flac 30.385 MB
02 - Snow Patrol - 2011 - Called Out In The Dark.flac 30.071 MB
03 - Snow Patrol - 2011 - The Weight Of Love.flac 28.548 MB
Gathering some info...

Register and log in Isohunt and see no captcha anymore!

4000 symbols left
Hash A7DC311D4C363B0FE423E0A7A985E5AEA79CB9B8

Related torrents for "Snow Patrol - Fallen Empires (2011) FLAC [CUE LOG]"

Torrent search:

lossless lossless 2011