imdb
rating

5.6
Your Highness

Your Highness (2011)

Action, Adventure, Comedy, Fantasy

Full description
quality   telesync hdtv dvdrip cam dvd

Your Highness (2011) DVDRip XviD

Size 729.747 MB   0 seeders     Added 2011-11-14 04:09:10

Stream torrent
Starting‥ You need BitLord! Get it from BitLord.com
6.7
To download or stream you need BitLord. Visit them at BitLord.com
ScreenCaps:\r\n \r\nimage\r\n\r\nYour Highness (2011) DVDRip XviD-MAX\r\nFormat                           : wmv\r\nFormat/Info                      : Windows Media Video\r\nFormat profile                   : OpenDML\r\nFile size                        : 702 MiB\r\nDuration                         : 1h 45mn\r\nOverall bit rate                 : 1 592 Kbps\r\nWriting application              : VirtualDubMod 1.5.10.2 (build 2542/release)\r\nWriting library                  : VirtualDubMod build 2542/release\r\nOriginal source form             : MAX TORRENTZ\r\nCopyright                        : SIGISMUNT\r\n\r\nVideo\r\nID                               : 0\r\nFormat                           : MPEG-4 Visual\r\nFormat profile                   : AdvancedSimple@L5\r\nFormat settings, BVOP            : Yes\r\nFormat settings, QPel            : No\r\nFormat settings, GMC             : No warppoints\r\nFormat settings, Matrix          : Default (H.263)\r\nMuxing mode                      : Packed bitstream\r\nCodec ID                         : XVID\r\nCodec ID/Hint                    : XviD\r\nDuration                         : 1h 45mn\r\nBit rate                         : 1 396 Kbps\r\nWidth                            : 624 pixels\r\nHeight                           : 256 pixels\r\nDisplay aspect ratio             : 2.40:1\r\nFrame rate                       : 23.976 fps\r\nResolution                       : 24 bits\r\nColorimetry                      : 4:2:0\r\nScan type                        : Progressive\r\nBits/(Pixel*Frame)               : 0.365\r\nStream size                      : 1.03 GiB (88%)\r\nWriting library                  : XviD 57\r\n\r\nAudio\r\nID                               : 1\r\nFormat                           : MPEG Audio\r\nFormat version                   : Version 1\r\nFormat profile                   : Layer 2\r\nCodec ID                         : 50\r\nCodec ID/Hint                    : MP1\r\nDuration                         : 1h 45mn\r\nBit rate mode                    : Constant\r\nBit rate                         : 192 Kbps\r\nChannel(s)                       : 2 channels\r\nSampling rate                    : 48.0 KHz\r\nResolution                       : 16 bits\r\nStream size                      : 145 MiB (12%)\r\nAlignment                        : Aligned on interleaves\r\nInterleave, duration             : 559 ms (13.41 video frames)\r\nInterleave, preload duration     : 216 ms\r\n\r\nSource: DVD (perfect a/v/sync quality,sample is included)\r\nThis torrent is not seedbox supported,please seed it to the MAX \r\n \r\nhttp://www.imdb.com/title/tt1240982/
sample.avi 9.803 MB
screencaps.jpeg 633.852 KB
Torrent downloaded from Demonoid.me.txt 46 B
Gathering some info...

Register and log in Isohunt and see no captcha anymore!

4000 symbols left
Hash EF5288B8098F9AF60EFB6866701A64A26DCCCF7B

Related torrents for "Your Highness (2011) DVDRip XviD"

Torrent search:

dvdrip 2011