imdb
rating

6.7
Pirates of the Caribbean: On Stranger Tides

Pirates of the Caribbean: On Stranger Tides (2011)

Action, Adventure, Fantasy

Full description

Pirates of the Caribbean On Stranger Tides (2011) DVDRip XviD-MAX

Size 730.023 MB   0 seeders     Added 2011-11-20 04:05:27

Stream torrent
Starting‥ You need BitLord! Get it from 1BitLord.com
10
To download or stream you need BitLord. Visit them at BitLord.com
ScreenCaps:\r\n \r\nimage[/img]\r\n\r\nPirates of the Caribbean On Stranger Tides (2011) DVDRip\r\nFormat                           : wmv\r\nFormat/Info                      : Windows Media Video\r\nFormat profile                   : OpenDML\r\nFile size                        : 705 MiB\r\nDuration                         : 2h 16mn\r\nOverall bit rate                 : 1 239 Kbps\r\nWriting application              : VirtualDubMod 1.5.10.2 (build 2542/release)\r\nWriting library                  : VirtualDubMod build 2542/release\r\nOriginal source form             : MAX TORRENTZ\r\nCopyright                        : SIGISMUNT\r\n\r\nVideo\r\nID                               : 0\r\nFormat                           : MPEG-4 Visual\r\nFormat profile                   : AdvancedSimple@L5\r\nFormat settings, BVOP            : Yes\r\nFormat settings, QPel            : No\r\nFormat settings, GMC             : No warppoints\r\nFormat settings, Matrix          : Default (MPEG)\r\nCodec ID                         : XVID\r\nCodec ID/Hint                    : XviD\r\nDuration                         : 2h 16mn\r\nBit rate                         : 1 038 Kbps\r\nWidth                            : 640 pixels\r\nHeight                           : 272 pixels\r\nDisplay aspect ratio             : 2.35:1\r\nFrame rate                       : 23.976 fps\r\nResolution                       : 24 bits\r\nColorimetry                      : 4:2:0\r\nScan type                        : Progressive\r\nBits/(Pixel*Frame)               : 0.249\r\nStream size                      : 1 013 MiB (84%)\r\nWriting library                  : XviD 1.2.1 (UTC 2008-12-04)\r\n\r\nAudio\r\nID                               : 1\r\nFormat                           : MPEG Audio\r\nFormat version                   : Version 1\r\nFormat profile                   : Layer 3\r\nCodec ID                         : 55\r\nCodec ID/Hint                    : MP3\r\nDuration                         : 2h 16mn\r\nBit rate mode                    : Constant\r\nBit rate                         : 192 Kbps\r\nChannel(s)                       : 2 channels\r\nSampling rate                    : 48.0 KHz\r\nResolution                       : 16 bits\r\nStream size                      : 187 MiB (15%)\r\nAlignment                        : Aligned on interleaves\r\nInterleave, duration             : 24 ms (0.58 video frame)\r\nInterleave, preload duration     : 192 ms\r\nWriting library                  : LAME3.98r\r\n \r\nhttp://www.imdb.com/title/tt1298650/
Pirates of the Caribbean On Stranger Tides (2011) DVDRip XviD-MA.wmv 722.453 MB
Pirates of the Caribbean On Stranger Tides (2011) DVDRip XviD-MAXSPEED.nfo 2.837 KB
sample.avi 7.081 MB
Gathering some info...

Register and log in Isohunt and see no captcha anymore!

4000 symbols left
Hash DDF6231C69339D0748E23C9451EC78BEBEB7B379

Related torrents for "Pirates of the Caribbean On Stranger Tides (2011) DVDRip XviD-MAX"

Torrent search:

dvdrip 2011