imdb
rating

5.9
Happy Feet Two

Happy Feet Two (2011)

Animation, Music

Full description
quality   bd cam x264 screener dvdrip

Happy Feet Two (2011) PPVRip.XviD.Dual.Audio

Size 1.14 GB   0 seeders     Added 2011-11-22 11:45:52

Stream torrent
Starting‥ You need BitLord! Get it from 1BitLord.com
To download or stream you need BitLord. Visit them at BitLord.com
Happy Feet Two (2011) PPVRip.XviD.Dual.Audio

Video
ID                             : 0
Format                         : AVI
Format profile                 : Advanced Simple@L5
Format settings, BVOP          : 2
Format settings, QPel          : Yes
Format settings, GMC           : No warppoints
Format settings, Matrix        : Default (H.263)
Muxing mode                    : Packed bitstream
Codec ID                       : XVID
Codec ID/Hint                  : XviD
Duration                       : 1h 38mn
Bit rate                       : 1 799 Kbps
Width                          : 720 pixels
Height                         : 304 pixels
Display aspect ratio           : 2.35:1
Frame rate                     : 23.976 fps
Color space                    : YUV
Chroma subsampling             : 4:2:0
Bit depth                      : 8 bits
Scan type                      : Progressive
Compression mode               : Lossy
Bits/(Pixel*Frame)             : 0.343
Stream size                    : 1.24 GiB (87%)
Writing library                : XviD 1.2.1 (UTC 2008-12-04)

Audio
ID                             : 1
Format                         : AC-3
Format/Info                    : Audio Coding 3
Mode extension                 : CM (complete main)
Codec ID                       : 2000
Duration                       : 1h 38mn
Bit rate mode                  : Constant
Bit rate                       : 256 Kbps
Channel(s)                     : 2 channels
Channel positions              : Front: L R
Sampling rate                  : 48.0 KHz
Bit depth                      : 16 bits
Compression mode               : Lossy
Delay relative to video        : 80ms
Stream size                    : 181 MiB (12%)
Alignment                      : Split accross interleaves
Interleave, duration           : 42 ms (1.00 video frame)
Interleave, preload duration   : 500 ms


Greetz!

ViSiON,SPK,SiC,SANTi,3LT0N,FUSiON,YanKeeS,MAGNET,THC,T0XiC,LKRG,FANTASIA-PLAY,FANTASIA-M,FLAWL3SS,
WBZ,ZMG,BHRG,NOVA,D2U,Vik,Rapeseed,SAFC,goldadvance,MEMORY100,KaN1vE,Unevano,Pinnz,Wayne
Mr Hive,and most P2P groups
Great Work Guys :D

LOOKING FOR ANYTHING YOU WANT TO LOOK AND SOUND BETTER

CM8@hushmail.com


http://xboxlivecodegenerator101.blogspot.com/

http://downloadfreesonypsncodes.blogspot.com/

http://download2getfreexboxlive.blogspot.com/
Happy Feet Two (2011) PPVRip.XviD.Dual.Audio/Happy Feet Two (2011) PPVRip.XviD.Dual.Audio.avi 1.137 GB
Happy Feet Two (2011) PPVRip.XviD.Dual.Audio/SAMPLE.avi 2.994 MB
Happy Feet Two (2011) PPVRip.XviD.Dual.Audio/Subs[ENG].srt 136.693 KB
Gathering some info...

Register and log in Isohunt and see no captcha anymore!

4000 symbols left
Hash 42c1b183b48bb2a76338cb58d72d8ecb8f93cb16

Related torrents for "Happy Feet Two (2011) PPVRip.XviD.Dual.Audio"

Torrent search:

ppvr 2011