Peter Frampton ~Frampton Comes Alive II - DVDrip [DTS 5 1] (Mus

Size 3.137 GB   0 seeders     Added 2011-11-23 05:42:55

Stream torrent
Starting‚Ä• You need BitLord! Get it from BitLord.com
To download or stream you need BitLord. Visit them at BitLord.com
The album contains live versions of many of the songs from his 1980s and 1990s solo albums, consciously avoiding his 1970s hits. It was accompanied by a video release on VHS, recorded at The Fillmore in San Francisco on June 15, 1995.
Frampton Comes Alive! II was released October 10, 1995 on IRS Records. The album reached No. 121 on the UK Albums Chart.
VIDEO INFO
Format : AVI
Format/Info : Audio Video Interleave
Format profile : OpenDML
File size : 2.92 GiB
Duration : 2h 7mn
Overall bit rate : 3 293 Kbps
Movie name : Bureaublad.Title1.DVDRip
Writing application : Lavf52.78.4
Original source form/Name : Bureaublad
Video
ID : 0
Format : MPEG-4 Visual
Format profile : Advanced Simple@L5
Format settings, BVOP : 2
Format settings, QPel : No
Format settings, GMC : No warppoints
Format settings, Matrix : Default (H.263)
Muxing mode : Packed bitstream
Codec ID : DX50
Codec ID/Hint : DivX 5
Duration : 2h 7mn
Bit rate : 2 519 Kbps
Width : 720 pixels
Height : 418 pixels
Display aspect ratio : 16:9
Frame rate : 29.970 fps
Color space : YUV
Chroma subsampling : 4:2:0
Bit depth : 8 bits
Scan type : Progressive
Compression mode : Lossy
Bits/(Pixel*Frame) : 0.279
Stream size : 2.24 GiB (77%)
Writing library : XviD 1.2.1 (UTC 2008-12-04)
Audio
ID : 1
Format : DTS
Format/Info : Digital Theater Systems
Codec ID : 2001
Codec ID/Info : Digital Theater Systems
Duration : 2h 6mn
Bit rate mode : Constant
Bit rate : 755 Kbps
Channel(s) : 6 channels
Channel positions : Front: L C R, Side: L R, LFE
Sampling rate : 48.0 KHz
Bit depth : 16 bits
Compression mode : Lossy
Stream size : 16.6 MiB (1%)
Alignment : Aligned on interleaves
Interleave, duration : 440 ms (13.19 video frames)
Interleave, preload duration : 10 ms
 
Peter Frampton ~Frampton Comes Alive II - DVDrip [DTS 5.1] (Musicvideo 1995 XviD).avi 3.137 GB
Gathering some info...

Register and log in Isohunt and see no captcha anymore!

4000 symbols left
Hash 505e882d2e62c2f0b1895d81647f77fb909c045a

Related torrents for "Peter Frampton ~Frampton Comes Alive II - DVDrip [DTS 5 1] (Mus"

Torrent search:

dvdrip 1995