Ice Age A Mammoth Christmas DVDRip XviD

Size 216.668 MB   0 seeders     Added 2011-11-24 05:15:36

To download or stream you need BitLord. Visit them at BitLord.com
[img]image[/img]

Ice.Age.A.Mammoth.Christmas.DVDRip.XviD-3LT0N

Title ......: Original Ice Age: The Mammoth Christmas
Year ........: 2011
Genre ........: Animation
IMDB Link .....: http://www.imdb.com/title/tt2100546/
Director: Karen Disher
Stars: Ciara Bravo, Queen Latifah and Denis Leary
Languages: English

Cast:
Ciara Bravo ... Peaches (voice)
Queen Latifah ... (Voice)
Denis Leary ... (Voice)
John Leguizamo ... (Voice)
Ray Romano ... (Voice)
Joshua Rush ... Actor (voice)

Format                           : AVI
Format/Info                      : Audio Video Interleave
File size                        : 204 MiB
Duration                         : 25mn 29s
Overall bit rate                 : 1 120 Kbps
Writing application              : FairUse Wizard - http://fairusewizard.com
Writing library                  : VirtualDub build 32842/release

Video
ID                               : 0
Format                           : MPEG-4 Visual
Format profile                   : Advanced Simple@L5
Format settings, BVOP            : 2
Format settings, QPel            : No
Format settings, GMC             : No warppoints
Format settings, Matrix          : Default (H.263)
Muxing mode                      : Packed bitstream
Codec ID                         : XVID
Codec ID/Hint                    : XviD
Duration                         : 25mn 29s
Bit rate                         : 983 Kbps
Width                            : 640 pixels
Height                           : 352 pixels
Display aspect ratio             : 16:9
Frame rate                       : 23.976 fps
Color space                      : YUV
Chroma subsampling               : 4:2:0
Bit depth                        : 8 bits
Scan type                        : Progressive
Compression mode                 : Lossy
Bits/(Pixel*Frame)               : 0.182
Stream size                      : 179 MiB (88%)
Writing library                  : XviD 1.2.1 (UTC 2008-12-04)

Audio
ID                               : 1
Format                           : MPEG Audio
Format version                   : Version 1
Format profile                   : Layer 3
Mode                             : Joint stereo
Codec ID                         : 55
Codec ID/Hint                    : MP3
Duration                         : 25mn 29s
Bit rate mode                    : Constant
Bit rate                         : 128 Kbps
Channel(s)                       : 2 channels
Sampling rate                    : 48.0 KHz
Compression mode                 : Lossy
Stream size                      : 23.3 MiB (11%)
Alignment                        : Aligned on interleaves
Interleave, duration             : 42 ms (1.00 video frame)
Interleave, preload duration     : 504 ms
Writing library                  : LAME3.97 
Encoding settings                : -m j -V 4 -q 2 -lowpass 17 -b 128

http://www.youtube.com/watch?v=MDKGOLT5YJI&feature=player_embedded
Ice.Age.A.Mammoth.Christmas.DVDRip.XviD-3LT0N/Ice.Age.A.Mammoth.Christmas.DVDRip.XviD-3LT0N.rar 214.228 MB
Ice.Age.A.Mammoth.Christmas.DVDRip.XviD-3LT0N/read.txt 57 B
Ice.Age.A.Mammoth.Christmas.DVDRip.XviD-3LT0N/Sample/sample.avi 2.44 MB
Gathering some info...

Register and log in Isohunt and see no captcha anymore!

4000 symbols left
Hash 6491744d61629927231af8e68213ff4551607f19