imdb
rating

7.6
Rise of the Planet of the Apes

Rise of the Planet of the Apes (2011)

Action, Drama, Science Fiction, Thriller

Full description

Rise of the Planet of the Apes 2011 TS XViD-ILLUMINATI

Size 688.226 MB   0 seeders     Added 2011-11-24 22:22:59

Stream torrent
Starting‥ You need BitLord! Get it from 1BitLord.com
To download or stream you need BitLord. Visit them at BitLord.com
Video                                                                        
  ID                               : 0                                        
  Format                           : MPEG-4 Visual                            
  Format profile                   : Advanced Simple@L5                        
  Format settings, BVOP            : Yes                                       
  Format settings, QPel            : No                                        
  Format settings, GMC             : No warppoints                             
  Format settings, Matrix          : Custom                                    
  Codec ID                         : XVID                                      
  Codec ID/Hint                    : XviD                                      
                                
  Bit rate                         : 1 197 Kbps                                
  Width                            : 680pixels                                 
  Height                           : 272 pixels                                
  Display aspect ratio             : 2.500                                     
  Frame rate                       : 25.000 fps                                
  Color space                      : YUV                                       
  Chroma subsampling               : 4:2:0                                     
  Bit depth                        : 8 bits                                    
  Scan type                        : Progressive                               
  Bits/(Pixel*Frame)               : 0.234                                     
  Stream size                      : 892 MiB (86%)                             
  Writing library                  : XviD 1.2.1 (UTC 2008-12-04)              
                                                                              
                                                                              
 Audio                                                                         
 ID                               : 1                                          
 Format                           : MPEG Audio                                 
 Format/Info                      : Version 1                                  
 Mode extension                   : Layer 3                                    
 Codec ID                         : Joint stereo                               
                                
 Bit rate mode                    : Constant                                   
 Bit rate                         : 128 Kbps                                   
 Channel(s)                       : 2 channels                                 
 Channel positions                : 2 channels              
 Sampling rate                    : 44.1 KHz                                   
 Bit depth                        : 16 bits                                    
 Stream size                      : 302 MiB                                    
 Alignment                        : Aligned on interleaves                     
 Interleave, duration             : 42 ms (1.00 video frame)                   
 Interleave, preload duration     : 512 ms     
Rise of the Planet of the Apes 2011 TS XViD-ILLUMINATI/Rise of the Planet of the Apes 2011 TS XViD-ILLUMINATI.avi 688.226 MB
Gathering some info...

Register and log in Isohunt and see no captcha anymore!

4000 symbols left
Hash 31d8ec41edf9b371d09f59e180fc5cc2e69bc30b

Related torrents for "Rise of the Planet of the Apes 2011 TS XViD-ILLUMINATI"

Torrent search:

telesync 2011