imdb
rating

5.2
The Squad

The Squad (2011)

Horror, Thriller

Full description
quality   x264 hd dvdr dvdrip dvd bd

Elite Squad (2011) DVDRip XviD-nVirgo

Size 655.362 MB   0 seeders     Added 2011-11-27 04:26:18

Stream torrent
Starting‥ You need BitLord! Get it from BitLord.com
To download or stream you need BitLord. Visit them at BitLord.com
http://www.scenetime.com    -   SceneTime [ We been having it ] !!!\r\n\r\n\r\nHow come you press harder on a remote control when you know the battery is dead? so you better seed to get speed ;)\r\n\r\n        Seed back for speed\r\n\r\n\r\n...................................NFO:.................................................General\r\n  \r\nFormat                           : AVI\r\nFormat/Info                      : Audio Video Interleave\r\nDuration                         : 1h 51mn\r\nOverall bit rate                 : 866 Kbps\r\n\r\nVideo\r\nID                               : 0\r\nFormat                           : MPEG-4 Visual\r\nFormat profile                   : Advanced Simple@L5\r\nFormat settings, BVOP            : 2\r\nFormat settings, QPel            : No\r\nFormat settings, GMC             : No warppoints\r\nFormat settings, Matrix          : Default (H.263)\r\nCodec ID                         : XVID\r\nCodec ID/Hint                    : XviD\r\nDuration                         : 1h 51mn\r\nBit rate                         : 730 Kbps\r\nWidth                            : 720 pixels\r\nHeight                           : 304 pixels\r\nDisplay aspect ratio             : 2.35:1\r\nFrame rate                       : 29.970 fps\r\nColor space                      : YUV\r\nChroma subsampling               : 4:2:0\r\nBit depth                        : 8 bits\r\nScan type                        : Progressive\r\nCompression mode                 : Lossy\r\nBits/(Pixel*Frame)               : 0.111\r\nStream size                      : 585 MiB (84%)\r\n\r\n\r\nAudio\r\nID                               : 1\r\nFormat                           : MPEG Audio\r\nFormat version                   : Version 1\r\nFormat profile                   : Layer 3\r\nMode                             : Joint stereo\r\nMode extension                   : MS Stereo\r\nCodec ID                         : 55\r\nCodec ID/Hint                    : MP3\r\nDuration                         : 1h 51mn\r\nBit rate mode                    : Constant\r\nBit rate                         : 128 Kbps\r\nChannel(s)                       : 2 channels\r\nSampling rate                    : 48.0 KHz\r\nCompression mode                 : Lossy\r\nStream size                      : 102 MiB (15%)\r\nAlignment                        : Aligned on interleaves\r\nInterleave, duration             : 133 ms (4.00 video frames)\r\nInterleave, preload duration     : 216 ms
Elite Squad (2011) DVDRip XviD-nVirgo.avi 655.362 MB
Gathering some info...

Register and log in Isohunt and see no captcha anymore!

4000 symbols left
Hash 72818A9CFE547A6DC8E5068B20EE4C7B184E6495

Related torrents for "Elite Squad (2011) DVDRip XviD-nVirgo"

Torrent search:

dvdrip 2011