Why this Kolaveri Di 3 Exclusive Full Video Song With Lyrics HD 720 MP4 AVI MP3 MNAS

Size 242.376 MB   2 seeders     Added 2011-12-03 03:50:44

Stream torrent
Starting‥ You need BitLord! Get it from 1BitLord.com
To download or stream you need BitLord. Visit them at BitLord.com
Why this Kolaveri Di 3 Exclusive Full Video Song With Lyrics .HD.720.MP4.AVI.MP3.MNAS\r\n\r\n\r\nExclusive video shot during the recording of the song with the music composer Anirudh,Dhanush,Shruti Hassan, Aishwarya and Sound Engineer Sivakumar\r\n\r\n[IMG]image[/IMG]\r\n\r\n\r\nVideo Info:-\r\n\r\n\r\nGeneral\r\n\r\nFormat                         : MPEG-4\r\nFormat profile                 : Base Media\r\nCodec ID                       : isom\r\nFile size                      : 107 MiB\r\nDuration                       : 4mn 8s\r\nOverall bit rate mode          : Variable\r\nOverall bit rate               : 3 622 Kbps\r\nEncoded date                   : UTC 2011-12-02 17:34:29\r\nTagged date                    : UTC 2011-12-02 17:34:29\r\nWriting application            : Lavf51.12.1\r\n\r\nVideo\r\nID                             : 1\r\nFormat                         : MPEG-4 Visual\r\nFormat profile                 : Simple@L1\r\nFormat settings, BVOP          : No\r\nFormat settings, QPel          : No\r\nFormat settings, GMC           : No warppoints\r\nFormat settings, Matrix        : Default (H.263)\r\nCodec ID                       : 20\r\nDuration                       : 4mn 8s\r\nBit rate                       : 3 468 Kbps\r\nWidth                          : 1 280 pixels\r\nHeight                         : 720 pixels\r\nDisplay aspect ratio           : 16:9\r\nFrame rate mode                : Constant\r\nFrame rate                     : 24.000 fps\r\nColor space                    : YUV\r\nChroma subsampling             : 4:2:0\r\nBit depth                      : 8 bits\r\nScan type                      : Progressive\r\nCompression mode               : Lossy\r\nBits/(Pixel*Frame)             : 0.157\r\nStream size                    : 103 MiB (96%)\r\nWriting library                : Lavc51.40.4\r\nEncoded date                   : UTC 2011-12-02 17:34:29\r\nTagged date                    : UTC 2011-12-02 17:34:29\r\n\r\nAudio\r\nID                             : 2\r\nFormat                         : AAC\r\nFormat/Info                    : Advanced Audio Codec\r\nFormat profile                 : LC\r\nCodec ID                       : 40\r\nDuration                       : 4mn 7s\r\nBit rate mode                  : Variable\r\nBit rate                       : 151 Kbps\r\nChannel(s)                     : 2 channels\r\nChannel positions              : Front: L R\r\nSampling rate                  : 44.1 KHz\r\nCompression mode               : Lossy\r\nStream size                    : 4.44 MiB (4%)\r\nEncoded date                   : UTC 2011-12-02 17:34:29\r\nTagged date                    : UTC 2011-12-02 17:34:29
Screen/vlcsnap-2011-12-03-00h09m45s13.png 530.554 KB
Screen/vlcsnap-2011-12-03-00h10m36s10.png 588.819 KB
Screen/vlcsnap-2011-12-03-00h10m58s230.png 577.583 KB
Gathering some info...

Register and log in Isohunt and see no captcha anymore!

4000 symbols left
Hash F5230089B009E446BCA1715D47DCAD24D26ABF97

Related torrents for "Why this Kolaveri Di 3 Exclusive Full Video Song With Lyrics HD 720 MP4 AVI MP3 MNAS"

Torrent search:

mp3 2011