Taylor Swift - Ours Music Video HD 720p

Size 82.078 MB   1 seeders     Added 2011-12-07 03:48:37

Stream torrent
Starting‥ You need BitLord! Get it from BitLord.com
10
To download or stream you need BitLord. Visit them at BitLord.com
General
Complete name : Taylor Swift - Ours music video 720p.mp4
Format : MPEG-4
Format profile : Base Media
Codec ID : isom
File size : 78.3 MiB
Duration : 4mn 6s
Overall bit rate : 2 667 Kbps
Video
ID : 1
Format : AVC
Format/Info : Advanced Video Codec
Format profile : High@L3.1
Format settings, CABAC : Yes
Format settings, ReFrames : 4 frames
Codec ID : avc1
Codec ID/Info : Advanced Video Coding
Duration : 4mn 6s
Bit rate : 2 509 Kbps
Maximum bit rate : 5 296 Kbps
Width : 1 280 pixels
Height : 720 pixels
Display aspect ratio : 16:9
Frame rate mode : Constant
Frame rate : 23.976 fps
Color space : YUV
Chroma subsampling : 4:2:0
Bit depth : 8 bits
Scan type : Progressive
Bits/(Pixel*Frame) : 0.114
Stream size : 73.6 MiB (94%)
Writing library : Vimeo Encoder
Audio
ID : 2
Format : AAC
Format/Info : Advanced Audio Codec
Format profile : LC
Codec ID : 40
Duration : 4mn 6s
Bit rate mode : Variable
Bit rate : 155 Kbps
Maximum bit rate : 262 Kbps
Channel(s) : 2 channels
Channel positions : Front: L R
Sampling rate : 44.1 KHz
Compression mode : Lossy
Stream size : 4.56 MiB (6%)
 
Taylor_Swift_-_Ours_music_video_720p.mp4 82.078 MB
Gathering some info...

Register and log in Isohunt and see no captcha anymore!

4000 symbols left
Hash B7BD70087151CA53F4558C6BD2654EA19454E403

Related torrents for "Taylor Swift - Ours Music Video HD 720p"