imdb
rating

8.1
Peter Kay: Live at the Bolton Albert Halls

Peter Kay: Live at the Bolton Albert Halls (2003)

Comedy

Full description
quality   dvdrip

Peter Kay - Live At The Bolton Albert Halls (2003)

Size 733.955 MB   1 seeders     Added 2011-12-09 08:44:03

Stream torrent
Starting‥ You need BitLord! Get it from BitLord.com
10
To download or stream you need BitLord. Visit them at BitLord.com
, . http://www.scenetime.com/signup.php ---> Hottest scene tracker on the net !!! Scenetime lucky draw is started , join now and be the winner . offer is limited Join Now http://www.scenetime.com/signup.php seed back for speed ...................................NFO:.................................................General Complete name : F:\Video\Peter Kay - Live At The Bolton Albert Halls (2003)\Peter Kay Live at Bolton Albert Halls.avi Format : AVI Format/Info : Audio Video Interleave File size : 700 MiB Duration : 1h 23mn Overall bit rate : 1 169 Kbps Writing application : VirtualDubMod 1.5.4.1 (build 2178/release) Writing library : VirtualDubMod build 2178/release Video ID : 0 Format : MPEG-4 Visual Format profile : AdvancedSimple@L5 Format settings, BVOP : Yes Format settings, QPel : No Format settings, GMC : No warppoints Format settings, Matrix : Custom Codec ID : XVID Codec ID/Hint : XviD Duration : 1h 23mn Bit rate : 1 024 Kbps Width : 640 pixels Height : 368 pixels Display aspect ratio : 16:9 Frame rate : 25.000 fps Resolution : 24 bits Colorimetry : 4:2:0 Scan type : Progressive Bits/(Pixel*Frame) : 0.174 Stream size : 613 MiB (88%) Writing library : XviD 1.0.2 (UTC 2004-08-29) Audio ID : 1 Format : MPEG Audio Format version : Version 1 Format profile : Layer 3 Codec ID : 55 Codec ID/Hint : MP3 Duration : 1h 23mn Bit rate mode : Variable Bit rate : 132 Kbps Nominal bit rate : 128 Kbps Channel(s) : 2 channels Sampling rate : 48.0 KHz Resolution : 16 bits Stream size : 79.1 MiB (11%) Alignment : Aligned on interleaves Interleave, duration : 24 ms (0.60 video frame) Interleave, preload duration : 292 ms Writing library : LAME3.90. Encoding settings : -m j -V 4 -q 2 -lowpass 17.6 --abr 128 Language : English
{ www.SceneTime.com } -Peter Kay - Live At The Bolton Albert Halls (2003)/Peter Kay - Live at the Botton Albert Halls.nfo 2.456 KB
{ www.SceneTime.com } -Peter Kay - Live At The Bolton Albert Halls (2003)/Peter Kay Live at Bolton Albert Halls.avi 733.952 MB
{ www.SceneTime.com } -Peter Kay - Live At The Bolton Albert Halls (2003)/Read this before playing this Video .txt 138 B
Gathering some info...

Register and log in Isohunt and see no captcha anymore!

4000 symbols left
Hash ee056b3bf84cf6f9bfceb970e886e294f04b45f3

Related torrents for "Peter Kay - Live At The Bolton Albert Halls (2003)"

Torrent search:

2003