imdb
rating

7.1
Brothers

Brothers (2009)

Drama, Thriller, War

Full description
quality   dvdrip h264 bd x264 hd

Brothers.2009.BDRip.x264.AC3-SiC

Size 1.482 GB   2 seeders     Added 2011-12-09 10:36:21

Stream torrent
Starting‥ You need BitLord! Get it from BitLord.com
To download or stream you need BitLord. Visit them at BitLord.com
Poster:
[img]image[/img]

IMDB Link:
http://www.imdb.com/title/tt0765010

Description:
When his helicopter goes down during his fourth tour of duty in Afghanistan, Marine Sam Cahill (Tobey Maguire) is presumed dead. Back home, brother Tommy (Jake Gyllenhaal) steps in to look over SamÆs wife, Grace (Natalie Portman), and two children. SamÆs surprise homecoming triggers domestic mayhem.

General
Complete name                    : Brothers.2009.BDRip.x264.AC3-SiC.mkv
Format                           : Matroska
Format version                   : Version 2
File size                        : 1.37 GiB
Duration                         : 1h 44mn
Overall bit rate                 : 1 875 Kbps
Writing application              : HandBrake 0.9.5
Writing library                  : libmkv 0.6.4.1

Video
ID                               : 1
Format                           : AVC
Format/Info                      : Advanced Video Codec
Format profile                   : High@L3.0
Format settings, CABAC           : Yes
Format settings, ReFrames        : 3 frames
Codec ID                         : V_MPEG4/ISO/AVC
Duration                         : 1h 44mn
Bit rate                         : 1 486 Kbps
Width                            : 720 pixels
Height                           : 304 pixels
Display aspect ratio             : 2.35:1
Frame rate mode                  : Variable
Frame rate                       : 23.976 fps
Color space                      : YUV
Chroma subsampling               : 4:2:0
Bit depth                        : 8 bits
Scan type                        : Progressive
Bits/(Pixel*Frame)               : 0.283
Stream size                      : 1.06 GiB (78%)
Writing library                  : x264 core 112
Language                         : English
Default                          : Yes
Forced                           : No

Audio
ID                               : 2
Format                           : AC-3
Format/Info                      : Audio Coding 3
Mode extension                   : CM (complete main)
Codec ID                         : A_AC3
Duration                         : 1h 44mn
Bit rate mode                    : Constant
Bit rate                         : 384 Kbps
Channel(s)                       : 6 channels
Channel positions                : Front: L C R, Side: L R, LFE
Sampling rate                    : 48.0 KHz
Bit depth                        : 16 bits
Compression mode                 : Lossy
Stream size                      : 287 MiB (20%)
Language                         : English
Default                          : Yes
Forced                           : No

Screenshots:
[IMG]image[/IMG]
[IMG]image[/IMG]
[IMG]image[/IMG]
[IMG]image[/IMG]
[IMG]image[/IMG]
[IMG]image[/IMG]
[IMG]image[/IMG]
[IMG]image[/IMG]

Note: N/A

Source:  Ours

Enjoy!

Respects to T00NG0D, ELEKTRI4KA, PA, YeFsTe, Box, MrRep and everyone in the struggle...
Brothers.2009.BDRip.x264.AC3-SiC/Brothers.2009.BDRip.x264.AC3-SiC-Sample.mkv 10.534 MB
Brothers.2009.BDRip.x264.AC3-SiC/Brothers.2009.BDRip.x264.AC3-SiC.mkv 1.471 GB
Brothers.2009.BDRip.x264.AC3-SiC/Brothers.2009.BDRip.x264.AC3-SiC.nfo 7.541 KB
Gathering some info...

Register and log in Isohunt and see no captcha anymore!

4000 symbols left
Hash b8c94cba8b4dc75a76d97694b02ded1135565de6

Related torrents for "Brothers.2009.BDRip.x264.AC3-SiC"

Torrent search:

2009 x264 bd