imdb
rating

 
Inside

Inside (2016)

Horror

Full description
quality   hdtv dvdrip x264 fullhd

The Devil Inside 2011 TS NEW SOURCE READNFO XviD-FYA.torrent

Size 666.585 MB   0 seeders     Added 2011-12-12 13:01:17

Stream torrent
Starting‥ You need BitLord! Get it from BitLord.com
To download or stream you need BitLord. Visit them at BitLord.com
2011 TS NEW SOURCE READNFO XviD - FYA





rEADNFO

FIRST 1 MINUTE 10 SECONDS FROM PREVIOUS CAM
MISSING 50 SECONDS AT 13 MINUTES 41 SECONDS

so here we are with a fixed version 
by popular demand as the other TS was a bit blur at the start ;)
readnfo is for the above ;)


iNFO

video
ID                               : 0
Format                           : MPEG-4 Visual
Format profile                   : Advanced Simple@L5
Format settings, BVOP            : 2
Format settings, QPel            : No
Format settings, GMC             : No warppoints
Format settings, Matrix          : Default (H.263)
Muxing mode                      : Packed bitstream
Codec ID                         : XVID
Codec ID/Hint                    : XviD
Bit rate                         : 2 064 Kbps
Width                            : 720 pixels
Height                           : 320 pixels
Display aspect ratio             : 2.25:1
Frame rate                       : 24.000 fps
Color space                      : YUV
Chroma subsampling               : 4:2:0
Bit depth                        : 8 bits
Scan type                        : Progressive
Compression mode                 : Lossy
Bits/(Pixel*Frame)               : 0.373
Stream size                      : 1.26 GiB (94%)
Writing library                  : XviD 64

audio
ID                               : 1
Format                           : MPEG Audio
Format version                   : Version 1
Format profile                   : Layer 3
Mode                             : Joint stereo
Mode extension                   : MS Stereo
Codec ID                         : 55
Codec ID/Hint                    : MP3
Bit rate mode                    : Constant
Bit rate                         : 128 Kbps
Channel(s)                       : 2 channels
Sampling rate                    : 44.1 KHz
Compression mode                 : Lossy
Stream size                      : 80.2 MiB (6%)
Alignment                        : Split accross interleaves
Interleave, duration             : 42 ms (1.00 video frame)
Writing library                  : LAME3.98r
Encoding settings                : -m j -V 4 -q 2 -lowpass 17 -b 128



Greetz:
To Those Who Think THis Is To

Looking For...........................
My Partner In Crime 1 Day Im Sure U Will
Return ;) :P ;) 
The Devil Inside 2011 TS NEW SOURCE READNFO XviD-FYA/2011 TS NEW SOURCE READNFO XviD - FYA.nfo 2.361 KB
The Devil Inside 2011 TS NEW SOURCE READNFO XviD-FYA/The Devil Inside 2011 TS NEW SOURCE READNFO XviD-FYA.avi 666.582 MB
Gathering some info...

Register and log in Isohunt and see no captcha anymore!

4000 symbols left
Hash c57d163c1864b93767e256c1c33365c51fb792db

Related torrents for "The Devil Inside 2011 TS NEW SOURCE READNFO XviD-FYA.torrent"

Torrent search:

telesync 2011