Fist 2 Fist 2011 DvDRip XviD Ac3 Feel-Free

Size 1.176 GB   0 seeders     Added 2011-12-16 04:23:57

Stream torrent
Starting‥ You need BitLord! Get it from BitLord.com
10
To download or stream you need BitLord. Visit them at BitLord.com
[center][IMG]image[/IMG]\r\n\r\nPlot: Years ago, Ken Min failed to stop his friend from killing a young couple, leaving their infant son orphaned. After his friend is sent to prison for the crime, Ken spends his life running away from his shame. Seeking redemption, he teaches mixed Martial Arts out of a community youth center. But Ken is ultimately forced to face his past when the orphaned boy finds his way into Ken's life, and Ken's murderous friend is released from prison. When he discovers that these two events are not a coincidence, Ken must choose between a heroic act of self-sacrifice or the self-preservation of running away. \r\n\r\nGenre: Action | Director: Jino Kang\r\n\r\nStarring: Jino Kang, Bill Duff and Gina Baretta\r\n\r\nLanguage: English | Subtitles: N/A \r\n\r\nSize: 1.10 GB\r\n\r\n\r\nSCREENSHOTS\r\n\r\n[IMG]image[/IMG]\r\n[IMG]image[/IMG]\r\n[IMG]image[/IMG]\r\n\r\n[code]\r\nNFO\r\n\r\nGenre:Action\r\nLanguage:English\r\nIMDb:http://www.imdb.com/title/tt1455619/\r\nSourceVD Thanks!\r\n \r\nFormat                           : AVI\r\nFormat/Info                      : Audio Video Interleave\r\nFile size                        : 1.10 GiB\r\nDuration                         : 1h 32mn\r\nOverall bit rate                 : 1 693 Kbps\r\n \r\n \r\nVideo\r\nID                               : 0\r\nFormat                           : MPEG-4 Visual\r\nFormat profile                   : Advanced Simple@L5\r\nFormat settings, BVOP            : Yes\r\nFormat settings, QPel            : No\r\nFormat settings, GMC             : No warppoints\r\nFormat settings, Matrix          : Default (H.263)\r\nCodec ID                         : XVID\r\nCodec ID/Hint                    : XviD\r\nDuration                         : 1h 32mn\r\nBit rate                         : 1 236 Kbps\r\nWidth                            : 640 pixels\r\nHeight                           : 360 pixels\r\nDisplay aspect ratio             : 16:9\r\nFrame rate                       : 23.976 fps\r\nColor space                      : YUV\r\nChroma subsampling               : 4:2:0\r\nBit depth                        : 8 bits\r\nScan type                        : Progressive\r\nBits/(Pixel*Frame)               : 0.224\r\nStream size                      : 819 MiB (73%)\r\nWriting library                  : XviD 1.2.1 (UTC 2008-12-04)\r\n \r\nAudio\r\nID                               : 1\r\nFormat                           : AC-3\r\nFormat/Info                      : Audio Coding 3\r\nMode extension                   : CM (complete main)\r\nCodec ID                         : 2000\r\nDuration                         : 1h 32mn\r\nBit rate mode                    : Constant\r\nBit rate                         : 448 Kbps\r\nChannel(s)                       : 6 channels\r\nChannel positions                : Front: L C R, Side: L R, LFE\r\nSampling rate                    : 48.0 KHz\r\nBit depth                        : 16 bits\r\nStream size                      : 297 MiB (26%)\r\nAlignment                        : Aligned on interleaves\r\nInterleave, duration             : 42 ms (1.00 video frame)\r\nInterleave, preload duration     : 512 ms[/code][/center]
Fist.2.Fist.2011.DvDRip.XviD.Ac3.Feel-Free.avi 1.176 GB
iNFO/iNFO.txt 399 B
iNFO/Torrent downloaded from Demonoid.me.txt 46 B
Gathering some info...

Register and log in Isohunt and see no captcha anymore!

4000 symbols left
Hash FD73844A5AC24B8F1F25F8430EF4CD30BD277902