imdb
rating

7.8
The Girl with the Dragon Tattoo

The Girl with the Dragon Tattoo (2011)

Crime, Drama, Mystery, Thriller

Full description

The Girl with the Dragon Tattoo 2011 FRENCH DVDRiP XViD-FWD

Size 783.136 MB   0 seeders     Added 2011-12-20 21:08:01

Stream torrent
Starting‥ You need BitLord! Get it from 1BitLord.com
10
To download or stream you need BitLord. Visit them at BitLord.com
The Girl with the Dragon Tattoo 2011 FRENCH DVDRiP XViD-FWD

Format                           : AVI
Format/Info                      : Audio Video Interleave
Format profile                   : OpenDML
Duration                         : 110 minutes
Overall bit rate                 : 1 206 Kbps
Writing application              : VirtualDubMod 1.5.10.2 (build 2542/release)
Writing library                  : VirtualDubMod build 2542/release


Video
ID                               : 0
Format                           : MPEG-4 Visual
Format profile                   : AdvancedSimple@L5
Format settings, BVOP            : Yes
Format settings, QPel            : No
Format settings, GMC             : No warppoints
Format settings, Matrix          : Default (H.263)
Muxing mode                      : Packed bitstream
Codec ID                         : XVID
Codec ID/Hint                    : XviD
Duration                         : 110 minutes
Bit rate                         : 1 010 Kbps
Width                            : 640 pixels
Height                           : 272 pixels
Display aspect ratio             : 2.35:1
Frame rate                       : 23.976 fps
Resolution                       : 24 bits
Colorimetry                      : 4:2:0
Scan type                        : Progressive
Bits/(Pixel*Frame)               : 0.242
Stream size                      : 962 MiB (84%)
Writing library                  : XviD 57

Audio
ID                               : 1
Format                           : MPEG Audio
Format version                   : Version 1
Format profile                   : Layer 3
Codec ID                         : 55
Codec ID/Hint                    : MP3
Duration                         : 110 minutes
Bit rate mode                    : Constant
Bit rate                         : 192 Kbps
Channel(s)                       : 2 channels
Sampling rate                    : 48.0 KHz
Resolution                       : 16 bits
Stream size                      : 183 MiB (16%)
Alignment                        : Aligned on interleaves
Interleave, duration             : 712 ms (17.08 video frames)
Interleave, preload duration     : 216 ms
Writing library                  : LAME3.98.2

http://www.imdb.com/title/tt1568346/

Source: DVD (perfect a/v/sync quality+filtered audio with additional 400% volume , sample is included)


How To Get Your Maxspeed (uTorrent)

Torrent Client - Preferences - Bandwidth - Number of connections - Set aprox. 500 for each 
Torrent Client - Preferences - BiTorrent - Protocol Encryption - Forced
Bandwidth Allocation - High (Set download/upload limit - Unlimited)
Stop Other Active Torrents - Enjoy and Seed at least 1:1 ratio		
The Girl with the Dragon Tattoo 2011 FRENCH DVDRiP XViD-FWD/The Girl with the Dragon Tattoo 2011 FRENCH DVDRiP XViD-FWD.avi 783.136 MB
The Girl with the Dragon Tattoo 2011 FRENCH DVDRiP XViD-FWD/Torrent downloaded from Demonoid.me.txt 46 B
The Girl with the Dragon Tattoo 2011 FRENCH DVDRiP XViD-FWD/Torrent downloaded from Extratorrent.com.txt 40 B
Gathering some info...

Register and log in Isohunt and see no captcha anymore!

4000 symbols left
Hash 6996661915f35895e3da88f8c4806045c601a03e

Related torrents for "The Girl with the Dragon Tattoo 2011 FRENCH DVDRiP XViD-FWD"

Torrent search:

dvdrip french 2011