imdb
rating

6.8
Knuckle

Knuckle (2011)

Documentary, Drama, Foreign

Full description

Knuckle .2011.TS.ENGLISH.XviD-NOVA.torrent

Size 664.545 MB   0 seeders     Added 2011-12-21 10:15:32

Stream torrent
Starting‥ You need BitLord! Get it from 1BitLord.com
To download or stream you need BitLord. Visit them at BitLord.com
Format                                   : MPEG-4 Visual
Format profile                           : Advanced Simple@L5
Format settings, BVOP                    : 2
Format settings, QPel                    : No
Format settings, GMC                     : No warppoints
Format settings, Matrix                  : Default (H.263)
Muxing mode                              : Packed bitstream
Codec ID                                 : XVID
Codec ID/Hint                            : XviD
Bit rate                                 : 2 295 Kbps
Width                                    : 720 pixels
Height                                   : 388 pixels
Display aspect ratio                     : 1.856
Frame rate                               : 25.000 fps
Color space                              : YUV
Chroma subsampling                       : 4:2:0
Bit depth                                : 8 bits
Scan type                                : Progressive
Compression mode                         : Lossy
Bits/(Pixel*Frame)                       : 0.329
Stream size                              : 1.49 GiB (83%)
Writing library                          : XviD 1.2.1 (UTC 2008-12-04)

Audio
ID                                       : 1
Format                                   : AC-3
Format/Info                              : Audio Coding 3
Mode extension                           : CM (complete main)
Codec ID                                 : 2000
Bit rate mode                            : Constant
Bit rate                                 : 448 Kbps
Channel(s)                               : 6 channels
Channel positions                        : Front: L C R, Side: L R, LFE
Sampling rate                            : 48.0 KHz
Bit depth                                : 16 bits
Compression mode                         : Lossy
Stream size                              : 298 MiB (16%)
Alignment                                : Aligned on interleaves
Interleave, duration                     : 32 ms (0.80 video frame)
Interleave, preload duration             : 32 ms


Knuckle (2011)
R  97 min  -  Documentary | Biography | Drama   -  9 December 2011 (USA)
6.5
Your rating:
    -/10  
Ratings: 6.5/10 from 537 users   Metascore: 64/100 
Reviews: 6 user | 26 critic | 14 from Metacritic.com

An epic 12-year journey into the brutal and secretive world of Irish Traveler bare-knuckle fighting. This film follows a history of violent feuding between rival clans.

Director:
Ian Palmer
Stars:
James Quinn McDonagh, Paddy Quinn McDonagh and Michael Quinn McDonagh 
Knuckle .2011.TS.ENGLISH.XviD-NOVA/Knuckle .2011.TS.ENGLISH.XviD-NOVA.avi 664.542 MB
Knuckle .2011.TS.ENGLISH.XviD-NOVA/Knuckle .2011.TS.ENGLISH.XviD-NOVA.nfo 2.632 KB
Gathering some info...

Register and log in Isohunt and see no captcha anymore!

4000 symbols left
Hash 6dd8699597b2e08cf477f49fa795ae229e9f2a99

Related torrents for "Knuckle .2011.TS.ENGLISH.XviD-NOVA.torrent"

Torrent search:

english telesync 2011