imdb
rating

5.8
Rampart

Rampart (2011)

Action, Drama, Thriller

Full description
quality   screener

Rampart .2011.TS.ENGLISH.XviD-NOVA.torrent

Size 675.765 MB   0 seeders     Added 2011-12-21 10:36:04

Stream torrent
Starting‥ You need BitLord! Get it from BitLord.com
To download or stream you need BitLord. Visit them at BitLord.com
Format                                   : MPEG-4 Visual
Format profile                           : Advanced Simple@L5
Format settings, BVOP                    : 2
Format settings, QPel                    : No
Format settings, GMC                     : No warppoints
Format settings, Matrix                  : Default (H.263)
Muxing mode                              : Packed bitstream
Codec ID                                 : XVID
Codec ID/Hint                            : XviD
Bit rate                                 : 2 295 Kbps
Width                                    : 720 pixels
Height                                   : 388 pixels
Display aspect ratio                     : 1.856
Frame rate                               : 25.000 fps
Color space                              : YUV
Chroma subsampling                       : 4:2:0
Bit depth                                : 8 bits
Scan type                                : Progressive
Compression mode                         : Lossy
Bits/(Pixel*Frame)                       : 0.329
Stream size                              : 1.49 GiB (83%)
Writing library                          : XviD 1.2.1 (UTC 2008-12-04)

Audio
ID                                       : 1
Format                                   : AC-3
Format/Info                              : Audio Coding 3
Mode extension                           : CM (complete main)
Codec ID                                 : 2000
Bit rate mode                            : Constant
Bit rate                                 : 448 Kbps
Channel(s)                               : 6 channels
Channel positions                        : Front: L C R, Side: L R, LFE
Sampling rate                            : 48.0 KHz
Bit depth                                : 16 bits
Compression mode                         : Lossy
Stream size                              : 298 MiB (16%)
Alignment                                : Aligned on interleaves
Interleave, duration                     : 32 ms (0.80 video frame)
Interleave, preload duration             : 32 ms



Rampart (2011)
R  108 min  -  Action | Crime | Drama   -  27 January 2012 (USA)
6.2
Your rating:
    -/10  
Ratings: 6.2/10 from 1,361 users   Metascore: 67/100 
Reviews: 27 user | 35 critic | 16 from Metacritic.com

Set in 1999 Los Angeles, veteran police officer Dave Brown, the last of the renegade cops, works to take care of his family, and struggles for his own survival.

Director:
Oren Moverman
Writers:
James Ellroy, Oren Moverman
Stars:
Woody Harrelson, Ben Foster and Sigourney Weaver 
Rampart .2011.TS.ENGLISH.XviD-NOVA/Rampart .2011.TS.ENGLISH.XviD-NOVA.avi 675.762 MB
Rampart .2011.TS.ENGLISH.XviD-NOVA/Rampart .2011.TS.ENGLISH.XviD-NOVA.nfo 2.632 KB
Gathering some info...

Register and log in Isohunt and see no captcha anymore!

4000 symbols left
Hash 7224ccbafa3a02282d2f7431e6446bda4dbad0f3

Related torrents for "Rampart .2011.TS.ENGLISH.XviD-NOVA.torrent"

Torrent search:

english telesync 2011