The.Girl.With.The.Dragon.Tattoo.2011.DVDSCR.XviD-FTW

Size 737.3 MB   0 seeders     Added 2011-12-21 19:59:35

To download or stream you need BitLord. Visit them at BitLord.com
Video
ID : 0
Format : MPEG-4 Visual
Format profile : Advanced Simple@L5
Format settings, BVOP : Yes
Format settings, QPel : No
Format settings, GMC : No warppoints
Format settings, Matrix : Default (H.263)
Muxing mode : Packed bitstream
Codec ID : XVID
Codec ID/Hint : XviD
Bit rate : 856 Kbps
Width : 640 pixels
Height : 352 pixels
Display aspect ratio : 16:9
Frame rate : 29.970 fps
Color space : YUV
Chroma subsampling : 4:2:0
Bit depth : 8 bits
Scan type : Progressive
Compression mode : Lossy
Bits/(Pixel*Frame) : 0.127
Stream size : 580 MiB (65%)
Writing library : XviD 64
Audio
ID : 1
Format : AC-3
Format/Info : Audio Coding 3
Mode extension : CM (complete main)
Codec ID : 2000
Bit rate mode : Constant
Bit rate : 448 Kbps
Channel(s) : 2 channels
Channel positions : Front: L R
Sampling rate : 48.0 KHz
Bit depth : 16 bits
Compression mode : Lossy
Stream size : 303 MiB (34%)
Alignment : Split accross interleaves
Interleave, duration : 33 ms (1.00 video frame)
Interleave, preload duration : 500 ms
The.Girl.With.The.Dragon.Tattoo.2011.DVDSCR.XviD-FTW/Release.nfo 2.408 KB
The.Girl.With.The.Dragon.Tattoo.2011.DVDSCR.XviD-FTW/sample/sample.avi 2.915 MB
The.Girl.With.The.Dragon.Tattoo.2011.DVDSCR.XviD-FTW/tgwtdt-ftw.r00 15 MB
Gathering some info...

Register and log in Isohunt and see no captcha anymore!

4000 symbols left
Hash d75dcb4eca9a97c02e57f5495c986d0d4cf1fef8

Related torrents for "The.Girl.With.The.Dragon.Tattoo.2011.DVDSCR.XviD-FTW"

Torrent search:

2011