Alvin.And.The.Chipmunks.ChipWrecked (2011) DVDSCR.XviD-FTW

Size 743.74 MB   0 seeders     Added 2011-12-21 19:57:56

10
To download or stream you need BitLord. Visit them at BitLord.com
Video
ID : 0
Format : MPEG-4 Visual
Format profile : Advanced Simple@L5
Format settings, BVOP : Yes
Format settings, QPel : No
Format settings, GMC : No warppoints
Format settings, Matrix : Default (H.263)
Muxing mode : Packed bitstream
Codec ID : XVID
Codec ID/Hint : XviD
Bit rate : 856 Kbps
Width : 640 pixels
Height : 352 pixels
Display aspect ratio : 16:9
Frame rate : 29.970 fps
Color space : YUV
Chroma subsampling : 4:2:0
Bit depth : 8 bits
Scan type : Progressive
Compression mode : Lossy
Bits/(Pixel*Frame) : 0.127
Stream size : 580 MiB (65%)
Writing library : XviD 64
Audio
ID : 1
Format : AC-3
Format/Info : Audio Coding 3
Mode extension : CM (complete main)
Codec ID : 2000
Bit rate mode : Constant
Bit rate : 448 Kbps
Channel(s) : 2 channels
Channel positions : Front: L R
Sampling rate : 48.0 KHz
Bit depth : 16 bits
Compression mode : Lossy
Stream size : 303 MiB (34%)
Alignment : Split accross interleaves
Interleave, duration : 33 ms (1.00 video frame)
Interleave, preload duration : 500 ms
Alvin.And.The.Chipmunks.ChipWrecked (2011) DVDSCR.XviD-FTW/chip-wrecked.r00 15 MB
Alvin.And.The.Chipmunks.ChipWrecked (2011) DVDSCR.XviD-FTW/chip-wrecked.r01 15 MB
Alvin.And.The.Chipmunks.ChipWrecked (2011) DVDSCR.XviD-FTW/chip-wrecked.r02 15 MB
Gathering some info...

Register and log in Isohunt and see no captcha anymore!

4000 symbols left
Hash 5c609bee70940d07335a757f50eef5901322e8de

Related torrents for "Alvin.And.The.Chipmunks.ChipWrecked (2011) DVDSCR.XviD-FTW"

Torrent search:

2011