imdb
rating

7.8
The Girl with the Dragon Tattoo

The Girl with the Dragon Tattoo (2011)

Crime, Drama, Mystery, Thriller

Full description

The Girl With the Dragon Tattoo (2011) DVDRip XviD.AC3 - ADVNTX

Size 728.389 MB   0 seeders     Added 2011-12-23 04:22:28

Stream torrent
Starting‥ You need BitLord! Get it from 1BitLord.com
To download or stream you need BitLord. Visit them at BitLord.com
IMDb: http://www.imdb.com/title/tt1568346/ ------------------------------------------- The Girl With the Dragon Tattoo (2011) DVDRip_XviD.AC3 - ADVNTX --------------------------------------------------------------- Sample................: Yes Sample Size...........: 2.49 MiB -------------------------------- Details: ------- Video ID : 0 Format : MPEG-4 Visual Format profile : AdvancedSimple@L5 Format settings, BVOP : Yes Format settings, QPel : No Format settings, GMC : No warppoints Format settings, Matrix : Custom Codec ID : XVID Codec ID/Hint : XviD Duration : 2h 38mn Bit rate : 1 631 Kbps Width : 720 pixels Height : 304 pixels Display aspect ratio : 2.35:1 Frame rate : 23.976 fps Resolution : 24 bits Colorimetry : 4:2:0 Scan type : Progressive Bits/(Pixel*Frame) : 0.311 Stream size : 691 MiB (99%) Writing library : XviD 58 Audio ID : 1 Format : AC-3 Format/Info : Audio Coding 3 Codec ID : 2000 Duration : 2h 38mn Bit rate mode : Constant Bit rate : 384 Kbps Channel(s) : 6 channels Channel positions : Front: L C R, Surround: L R, LFE Sampling rate : 48.0 KHz Stream size : 293 MiB (19%) Alignment : Aligned on interleaves Interleave, duration : 64 ms (1.54 video frames) Interleave, preload duration : 192 ms ----------------------------------------- Plot: ---- Journalist Mikael Blomkvist is aided in his search for a woman who has been missing for forty years by Lisbeth Salander, a young computer hacker. Screenshots: ----------- image/ image/ image/ image/ image/ image/ image/ image/ image/ image/ -----------------------------------------------------
1.jpg 19.496 KB
2.jpg 18.422 KB
3.jpg 20.553 KB
Gathering some info...

Register and log in Isohunt and see no captcha anymore!

4000 symbols left
Hash 40CDB5C00BF14D1FFB6B9FF70C5AB8BF0DDABFBB

Related torrents for "The Girl With the Dragon Tattoo (2011) DVDRip XviD.AC3 - ADVNTX"

Torrent search:

dvdrip 2011