imdb
rating

7.4
Mission: Impossible – Ghost Protocol

Mission: Impossible – Ghost Protocol (2011)

Action, Adventure, Thriller

Full description

Mission.Impossible.Ghost.Protocol.[CAMrip].torrent

Size 814.816 MB   0 seeders     Added 2011-12-23 04:33:04

Stream torrent
Starting‥ You need BitLord! Get it from 1BitLord.com
To download or stream you need BitLord. Visit them at BitLord.com
Mission: Impossible - Ghost Protocol (2011)\r\n\r\n7.9/10 IMDb\r\nhttp://www.imdb.com/title/tt1229238/\r\nThe IMF is shut down when it's implicated in the bombing of the Kremlin, causing Ethan Hunt and his new team to go rogue to clear their organization's name. \r\n\r\nMission: Impossible � Ghost Protocol is a 2011 action spy film, and the fourth installment in the Mission: Impossible series. It stars Tom Cruise, who reprises his role of IMF Agent Ethan Hunt, and is director Brad Bird's first live-action film.[5] Ghost Protocol was written by Andr� Nemec and Josh Appelbaum, and produced by Cruise, J. J. Abrams (director of the third film) and Bryan Burk. It is the first Mission: Impossible film not produced by Paula Wagner, and the first of the series to be partially filmed using IMAX cameras. The film was released in North America on December 16, 2011, to positive reviews.\r\n\r\nGeneral\r\n\r\nFormat                           : AVI\r\nFormat/Info                      : Audio Video Interleave\r\nFile size                        : 700 MB\r\nDuration                         : 1h 29mn\r\nOverall bit rate                 : 1 904 Kbps\r\n\r\nVideo\r\nID                               : 0\r\nFormat                           : MPEG-4 Visual\r\nFormat profile                   : Advanced Simple@L5\r\nFormat settings, BVOP            : Yes\r\nFormat settings, QPel            : No\r\nFormat settings, GMC             : No warppoints\r\nFormat settings, Matrix          : Default (H.263)\r\nMuxing mode                      : Packed bitstream\r\nCodec ID                         : XVID\r\nCodec ID/Hint                    : XviD\r\nDuration                         : 1h 29mn\r\nBit rate                         : 1 512 Kbps\r\nWidth                            : 720 pixels\r\nHeight                           : 304 pixels\r\nDisplay aspect ratio             : 2.35:1\r\nFrame rate                       : 23.976 fps\r\nResolution                       : 8 bits\r\nColorimetry                      : 4:2:0\r\nScan type                        : Progressive\r\nBits/(Pixel*Frame)               : 0.288\r\nStream size                      : 973 MiB (79%)\r\nWriting library                  : XviD 64\r\n\r\nAudio\r\nID                               : 1\r\nFormat                           : AC-3\r\nFormat/Info                      : Audio Coding 3\r\nFormat_Settings_ModeExtension    : CM (complete main)\r\nCodec ID                         : 2000\r\nDuration                         : 1h 29mn\r\nBit rate mode                    : Constant\r\nBit rate                         : 384 Kbps\r\nChannel(s)                       : 6 channels\r\nChannel positions                : Front: L C R, Side: L R, LFE\r\nSampling rate                    : 48.0 KHz\r\nStream size                      : 247 MiB (20%)\r\nAlignment                        : Aligned on interleaves\r\nInterleave, duration             : 64 ms (1.53 video frames)\r\nInterleave, preload duration     : 192 ms\r\nTitle                            : 6ch English
Mission.Impossible.Ghost.Protocol.[CAMrip].nfo 170 B
Mission.Impossible.Ghost.Protocol.[CAMrip].rar 814.816 MB
movie info.txt 170 B
Gathering some info...

Register and log in Isohunt and see no captcha anymore!

4000 symbols left
Hash 5AF1FF79E9E464DF9C444856A3D963EAB372575C

Related torrents for "Mission.Impossible.Ghost.Protocol.[CAMrip].torrent"

Torrent search:

cam