Son of Terror (2011) [Eng] [DvDRip] Xvid - {RedDragon}

Size 734.105 MB   0 seeders     Added 2011-12-23 16:00:40

Stream torrent
Starting‥ You need BitLord! Get it from 1BitLord.com
To download or stream you need BitLord. Visit them at BitLord.com
[b]POSTER.

[img]image[/img]


   General.    
 


Complete name                : Son of Terror (2011).[Eng].[DvDRip].Xvid - {RedDragon}.avi
Format                       : MPEG-4
Format profile               : Base Media / Version 2
Codec ID                     : mp42
File size                    : 699 MiB
Duration                     : 1h 42mn
Overall bit rate             : 952 Kbps
Encoded date                 : UTC 2011-12-23 08:50:04
Tagged date                  : UTC 2011-12-23 09:02:36
Language                     : English
IMDb                         : http://www.imdb.com/title/tt0790813/
IMDb Rating                  : 3.4/10


    Video.    
 

ID                               : 1
Format                           : MPEG-4 Visual
Format profile                   : Simple@L1
Format settings, BVOP            : No
Format settings, QPel            : No
Format settings, GMC             : No warppoints
Format settings, Matrix          : Default (H.263)
Codec ID                         : 20
Duration                         : 1h 42mn
Bit rate mode                    : Variable
Bit rate                         : 789 Kbps
Maximum bit rate                 : 3 603 Mbps
Width                            : 640 pixels
Height                           : 336 pixels
Display aspect ratio             : 1.869
Frame rate mode                  : Variable
Frame rate                       : 25.405 fps
Minimum frame rate               : 8.559 fps
Maximum frame rate               : 29.970 fps
Color space                      : YUV
Chroma subsampling               : 4:2:0
Bit depth                        : 8 bits
Scan type                        : Progressive
Bits/(Pixel*Frame)               : 0.144
Stream size                      : 579 MiB (83%)
Writing library                  : Lavc52.94.3
Encoded date                     : UTC 2011-12-23 08:50:05
Tagged date                      : UTC 2011-12-23 09:02:36


   Audio.  
 

ID                               : 2
Format                           : AAC
Format/Info                      : Advanced Audio Codec
Format version                   : Version 4
Format profile                   : LC
Format settings, SBR             : No
Codec ID                         : 40
Duration                         : 1h 42mn
Bit rate mode                    : Variable
Bit rate                         : 160 Kbps
Maximum bit rate                 : 306 Kbps
Channel(s)                       : 2 channels
Channel positions                : Front: L R
Sampling rate                    : 48.0 KHz
Stream size                      : 117 MiB (17%)
Language                         : English
Encoded date                     : UTC 2011-12-23 08:50:05
Tagged date                      : UTC 2011-12-23 09:02:36


SCREEN SHOTS.


[IMG]image[/IMG]

[IMG]image[/IMG]

[IMG]image[/IMG]

[IMG]image[/IMG]

[IMG]image[/IMG]


TORRENT STATS.


[img]image[/img][/b]
Son.of.Terror.(2011).[Eng].[DvDRip].Xvid - {RedDragon}/SCREEN SHOTS/01.jpg 107.252 KB
Son.of.Terror.(2011).[Eng].[DvDRip].Xvid - {RedDragon}/SCREEN SHOTS/02.jpg 115.969 KB
Son.of.Terror.(2011).[Eng].[DvDRip].Xvid - {RedDragon}/SCREEN SHOTS/03.jpg 125.72 KB
Gathering some info...

Register and log in Isohunt and see no captcha anymore!

4000 symbols left
Hash 15466ddb2a33c6d39fe3838b54aad77003845fda

Related torrents for "Son of Terror (2011) [Eng] [DvDRip] Xvid - {RedDragon}"

Torrent search:

dvdrip english 2011