imdb
rating

4.4
Alvin and the Chipmunks: Chipwrecked

Alvin and the Chipmunks: Chipwrecked (2011)

Animation, Comedy, Fantasy, Music, Family

Full description
quality   dvdrip hd cam bd screener dvd

Alvin And The Chipmunks Chipwrecked 2011 CAM XVID READ NFO UnKnOwN

Size 1.064 GB   0 seeders     Added 2011-12-24 04:08:27

Stream torrent
Starting‥ You need BitLord! Get it from 1BitLord.com
To download or stream you need BitLord. Visit them at BitLord.com
Looking for fast download speeds come join http://dream-torrents.com for all the latest releases, with friendly staff online radio and games and much much more.\r\n-\r\n-\r\n.\r\nEncoded By .......:UnKnOwN\r\nRuntime ..........:1:21\r\nIMDb URL .........:http://www.imdb.com/title/tt1615918/\r\nLanguage .........:English\r\nFile Size ........:988mb\r\nRelease Date ......... 2011\r\nSource ......... Santa Dropped it through our chimney(:\r\nFile Type ......... Single AVI\r\nPS3 Compatible ....... We could care less\r\nGenre ......... Comedy/Kids\r\nVideo\r\nID : 0\r\nFormat : MPEG-4 Visual\r\nFormat profile : Advanced Simple@L5\r\nFormat settings, BVOP : Yes\r\nFormat settings, QPel : No\r\nFormat settings, GMC : No warppoints\r\nFormat settings, Matrix : Custom\r\nCodec ID : XVID\r\nCodec ID/Hint : XviD\r\nDuration : 1h 32mn\r\nBit rate : 1280Kbps\r\nWidth : 680ixels\r\nHeight : 368pixels\r\nDisplay aspect ratio : 16:9\r\nFrame rate : 29.997fps\r\nColor space : YUV\r\nChroma subsampling : 4:2:0\r\nBit depth : 8 bits\r\nScan type : Progressive\r\nBits/(Pixel*Frame) : 0.234\r\nStream size : 892 MiB (86%)\r\nWriting library : XviD 1.2.1 (UTC 2008-12-04)\r\nAudio\r\nID : 1\r\nFormat : MP3\r\nFormat/Info : MPEG\r\nMode extension : CM (complete main)\r\nCodec ID : 2000\r\nDuration : 1h 21mn\r\nBit rate mode : Constant\r\nBit rate : 128kbps\r\nChannel(s) : 2channels\r\nChannel positions : Front: L R\r\nSampling rate : 48.0 KHz\r\nBit depth : 16 bits\r\nStream size : 302 MiB\r\nAlignment : Aligned on interleaves\r\nInterleave, duration : 42 ms (1.00 video frame)\r\nInterleave, preload duration : 512 ms\r\n\r\n\r\nPlaying around while aboard a cruise ship, the Chipmunks and Chipettes accidentally go overboard and end up marooned in a tropical paradise. They discover their new turf is not as deserted as it seems.
UnKnOwN.nfo 10.123 KB
aatccwUnKnOwN.avi 1.052 GB
sample.avi 12.309 MB
Gathering some info...

Register and log in Isohunt and see no captcha anymore!

4000 symbols left
Hash 46508EA69A440CD8AFDF44B6099ABC9FA2C38BB5

Related torrents for "Alvin And The Chipmunks Chipwrecked 2011 CAM XVID READ NFO UnKnOwN"

Torrent search:

cam 2011